  0
SECTION
  2
HEADER
  9
$ACADVER
  1
AC1015
  9
$ACADMAINTVER
 70
    20
  9
$DWGCODEPAGE
  3
ANSI_1252
  9
$INSBASE
 10
0.0
 20
0.0
 30
0.0
  9
$EXTMIN
 10
17.65137093333897
 20
90.03773860978061
 30
-0.000000000000013
  9
$EXTMAX
 10
202.9541036614146
 20
150.1052870998455
 30
0.0000000000000023
  9
$LIMMIN
 10
0.0
 20
0.0
  9
$LIMMAX
 10
1600.0
 20
1100.0
  9
$ORTHOMODE
 70
     1
  9
$REGENMODE
 70
     1
  9
$FILLMODE
 70
     1
  9
$QTEXTMODE
 70
     0
  9
$MIRRTEXT
 70
     1
  9
$LTSCALE
 40
0.9094488188999999
  9
$ATTMODE
 70
     1
  9
$TEXTSIZE
 40
0.2
  9
$TRACEWID
 40
0.05
  9
$TEXTSTYLE
  7
STANDARD
  9
$CLAYER
  8
Dimension
  9
$CELTYPE
  6
ByLayer
  9
$CECOLOR
 62
   256
  9
$CELTSCALE
 40
1.0
  9
$DISPSILH
 70
     0
  9
$DIMSCALE
 40
1.0
  9
$DIMASZ
 40
1.5
  9
$DIMEXO
 40
1.0
  9
$DIMDLI
 40
1.0
  9
$DIMRND
 40
0.0
  9
$DIMDLE
 40
0.0
  9
$DIMEXE
 40
0.5
  9
$DIMTP
 40
0.01
  9
$DIMTM
 40
0.01
  9
$DIMTXT
 40
1.5
  9
$DIMCEN
 40
0.0
  9
$DIMTSZ
 40
0.0
  9
$DIMTOL
 70
     1
  9
$DIMLIM
 70
     0
  9
$DIMTIH
 70
     0
  9
$DIMTOH
 70
     0
  9
$DIMSE1
 70
     0
  9
$DIMSE2
 70
     0
  9
$DIMTAD
 70
     1
  9
$DIMZIN
 70
     1
  9
$DIMBLK
  1

  9
$DIMASO
 70
     1
  9
$DIMSHO
 70
     1
  9
$DIMPOST
  1

  9
$DIMAPOST
  1

  9
$DIMALT
 70
     0
  9
$DIMALTD
 70
     2
  9
$DIMALTF
 40
25.4
  9
$DIMLFAC
 40
1.0
  9
$DIMTOFL
 70
     0
  9
$DIMTVP
 40
0.0
  9
$DIMTIX
 70
     0
  9
$DIMSOXD
 70
     0
  9
$DIMSAH
 70
     0
  9
$DIMBLK1
  1

  9
$DIMBLK2
  1

  9
$DIMSTYLE
  2
STANDARD
  9
$DIMCLRD
 70
     0
  9
$DIMCLRE
 70
     0
  9
$DIMCLRT
 70
     0
  9
$DIMTFAC
 40
0.7
  9
$DIMGAP
 40
0.5
  9
$DIMJUST
 70
     0
  9
$DIMSD1
 70
     0
  9
$DIMSD2
 70
     0
  9
$DIMTOLJ
 70
     0
  9
$DIMTZIN
 70
     0
  9
$DIMALTZ
 70
     0
  9
$DIMALTTZ
 70
     0
  9
$DIMUPT
 70
     0
  9
$DIMDEC
 70
     2
  9
$DIMTDEC
 70
     2
  9
$DIMALTU
 70
     2
  9
$DIMALTTD
 70
     2
  9
$DIMTXSTY
  7
STANDARD
  9
$DIMAUNIT
 70
     0
  9
$DIMADEC
 70
     0
  9
$DIMALTRND
 40
0.0
  9
$DIMAZIN
 70
     0
  9
$DIMDSEP
 70
    46
  9
$DIMATFIT
 70
     3
  9
$DIMFRAC
 70
     0
  9
$DIMLDRBLK
  1

  9
$DIMLUNIT
 70
     2
  9
$DIMLWD
 70
    -2
  9
$DIMLWE
 70
    -2
  9
$DIMTMOVE
 70
     0
  9
$LUNITS
 70
     2
  9
$LUPREC
 70
     4
  9
$SKETCHINC
 40
0.1
  9
$FILLETRAD
 40
0.0
  9
$AUNITS
 70
     0
  9
$AUPREC
 70
     0
  9
$MENU
  1
acad
  9
$ELEVATION
 40
0.0
  9
$PELEVATION
 40
0.0
  9
$THICKNESS
 40
0.0
  9
$LIMCHECK
 70
     0
  9
$CHAMFERA
 40
0.2
  9
$CHAMFERB
 40
0.2
  9
$CHAMFERC
 40
0.0
  9
$CHAMFERD
 40
0.0
  9
$SKPOLY
 70
     0
  9
$TDCREATE
 40
2453879.491120567
  9
$TDUCREATE
 40
2453879.157787234
  9
$TDUPDATE
 40
2454686.561935764
  9
$TDUUPDATE
 40
2454686.228602431
  9
$TDINDWG
 40
0.3008360995
  9
$TDUSRTIMER
 40
0.3008360995
  9
$USRTIMER
 70
     1
  9
$ANGBASE
 50
0.0
  9
$ANGDIR
 70
     0
  9
$PDMODE
 70
     3
  9
$PDSIZE
 40
0.3125
  9
$PLINEWID
 40
0.0
  9
$SPLFRAME
 70
     0
  9
$SPLINETYPE
 70
     6
  9
$SPLINESEGS
 70
     8
  9
$HANDSEED
  5
936A
  9
$SURFTAB1
 70
     6
  9
$SURFTAB2
 70
     6
  9
$SURFTYPE
 70
     6
  9
$SURFU
 70
     6
  9
$SURFV
 70
     6
  9
$UCSBASE
  2

  9
$UCSNAME
  2

  9
$UCSORG
 10
0.0
 20
0.0
 30
0.0
  9
$UCSXDIR
 10
1.0
 20
0.0
 30
0.0
  9
$UCSYDIR
 10
0.0
 20
1.0
 30
0.0
  9
$UCSORTHOREF
  2

  9
$UCSORTHOVIEW
 70
     0
  9
$UCSORGTOP
 10
0.0
 20
0.0
 30
0.0
  9
$UCSORGBOTTOM
 10
0.0
 20
0.0
 30
0.0
  9
$UCSORGLEFT
 10
0.0
 20
0.0
 30
0.0
  9
$UCSORGRIGHT
 10
0.0
 20
0.0
 30
0.0
  9
$UCSORGFRONT
 10
0.0
 20
0.0
 30
0.0
  9
$UCSORGBACK
 10
0.0
 20
0.0
 30
0.0
  9
$PUCSBASE
  2

  9
$PUCSNAME
  2

  9
$PUCSORG
 10
0.0
 20
0.0
 30
0.0
  9
$PUCSXDIR
 10
1.0
 20
0.0
 30
0.0
  9
$PUCSYDIR
 10
0.0
 20
1.0
 30
0.0
  9
$PUCSORTHOREF
  2

  9
$PUCSORTHOVIEW
 70
     0
  9
$PUCSORGTOP
 10
0.0
 20
0.0
 30
0.0
  9
$PUCSORGBOTTOM
 10
0.0
 20
0.0
 30
0.0
  9
$PUCSORGLEFT
 10
0.0
 20
0.0
 30
0.0
  9
$PUCSORGRIGHT
 10
0.0
 20
0.0
 30
0.0
  9
$PUCSORGFRONT
 10
0.0
 20
0.0
 30
0.0
  9
$PUCSORGBACK
 10
0.0
 20
0.0
 30
0.0
  9
$USERI1
 70
     0
  9
$USERI2
 70
     0
  9
$USERI3
 70
     0
  9
$USERI4
 70
     0
  9
$USERI5
 70
     0
  9
$USERR1
 40
0.0
  9
$USERR2
 40
0.0
  9
$USERR3
 40
0.0
  9
$USERR4
 40
0.0
  9
$USERR5
 40
0.0
  9
$WORLDVIEW
 70
     1
  9
$SHADEDGE
 70
     3
  9
$SHADEDIF
 70
    70
  9
$TILEMODE
 70
     1
  9
$MAXACTVP
 70
    16
  9
$PINSBASE
 10
0.0
 20
0.0
 30
0.0
  9
$PLIMCHECK
 70
     0
  9
$PEXTMIN
 10
1.000000000000000E+20
 20
1.000000000000000E+20
 30
1.000000000000000E+20
  9
$PEXTMAX
 10
-1.000000000000000E+20
 20
-1.000000000000000E+20
 30
-1.000000000000000E+20
  9
$PLIMMIN
 10
0.0
 20
0.0
  9
$PLIMMAX
 10
12.0
 20
9.0
  9
$UNITMODE
 70
     0
  9
$VISRETAIN
 70
     0
  9
$PLINEGEN
 70
     1
  9
$PSLTSCALE
 70
     0
  9
$TREEDEPTH
 70
  3020
  9
$CMLSTYLE
  2
Standard
  9
$CMLJUST
 70
     0
  9
$CMLSCALE
 40
1.0
  9
$PROXYGRAPHICS
 70
     0
  9
$MEASUREMENT
 70
     0
  9
$CELWEIGHT
370
     0
  9
$ENDCAPS
280
     0
  9
$JOINSTYLE
280
     0
  9
$LWDISPLAY
290
     1
  9
$INSUNITS
 70
     1
  9
$HYPERLINKBASE
  1

  9
$STYLESHEET
  1
acad.ctb
  9
$XEDIT
290
     1
  9
$CEPSNTYPE
380
     0
  9
$PSTYLEMODE
290
     1
  9
$FINGERPRINTGUID
  2

  9
$VERSIONGUID
  2
{1B761198-1379-4186-A02D-5A69EC72995E}
  9
$EXTNAMES
290
     1
  9
$PSVPSCALE
 40
0.0
  9
$OLESTARTUP
290
     0
  0
ENDSEC
  0
SECTION
  2
CLASSES
  0
CLASS
  1
ACDBDICTIONARYWDFLT
  2
AcDbDictionaryWithDefault
  3
ObjectDBX Classes
 90
        0
280
     0
281
     0
  0
CLASS
  1
ACDBPLACEHOLDER
  2
AcDbPlaceHolder
  3
ObjectDBX Classes
 90
        0
280
     0
281
     0
  0
CLASS
  1
LAYOUT
  2
AcDbLayout
  3
ObjectDBX Classes
 90
        0
280
     0
281
     0
  0
CLASS
  1
IMAGE
  2
AcDbRasterImage
  3
ISM
 90
    32895
280
     0
281
     1
  0
CLASS
  1
DICTIONARYVAR
  2
AcDbDictionaryVar
  3
ObjectDBX Classes
 90
        0
280
     0
281
     0
  0
CLASS
  1
RASTERVARIABLES
  2
AcDbRasterVariables
  3
ISM
 90
    32768
280
     0
281
     0
  0
CLASS
  1
IMAGEDEF
  2
AcDbRasterImageDef
  3
ISM
 90
    32768
280
     0
281
     0
  0
CLASS
  1
IMAGEDEF_REACTOR
  2
AcDbRasterImageDefReactor
  3
ISM
 90
    32769
280
     0
281
     0
  0
CLASS
  1
IDBUFFER
  2
AcDbIdBuffer
  3
ObjectDBX Classes
 90
    32768
280
     0
281
     0
  0
CLASS
  1
SPATIAL_FILTER
  2
AcDbSpatialFilter
  3
ObjectDBX Classes
 90
    32768
280
     0
281
     0
  0
CLASS
  1
SORTENTSTABLE
  2
AcDbSortentsTable
  3
ObjectDBX Classes
 90
        0
280
     0
281
     0
  0
CLASS
  1
LAYER_INDEX
  2
AcDbLayerIndex
  3
ObjectDBX Classes
 90
    32768
280
     0
281
     0
  0
CLASS
  1
SPATIAL_INDEX
  2
AcDbSpatialIndex
  3
ObjectDBX Classes
 90
    32768
280
     0
281
     0
  0
CLASS
  1
OBJECT_PTR
  2
CAseDLPNTableRecord
  3
ASE-LPNTableRecord
 90
    32769
280
     0
281
     0
  0
CLASS
  1
PLOTSETTINGS
  2
AcDbPlotSettings
  3
ObjectDBX Classes
 90
    32768
280
     0
281
     0
  0
CLASS
  1
VBA_PROJECT
  2
AcDbVbaProject
  3
acad
 90
    32768
280
     0
281
     0
  0
CLASS
  1
WIPEOUT
  2
AcDbWipeout
  3
"WipeOut|Product Desc: Object Enabler for WipeOut entity^I^I^I^I^I^I|Company: Autodesk, Inc.^I^I^I^I^I^I|WEB Address: www.autodesk.com"
 90
    32895
280
     0
281
     1
  0
CLASS
  1
WIPEOUTVARIABLES
  2
AcDbWipeoutVariables
  3
"WipeOut|Product Desc:     WipeOut Dbx Application|Company:          Autodesk, Inc.|WEB Address:      www.autodesk.com"
 90
    32768
280
     0
281
     0
  0
CLASS
  1
RTEXT
  2
RText
  3
RText|AutoCAD Express Tool|expresstools@autodesk.com
 90
    33791
280
     0
281
     1
  0
CLASS
  1
ARCALIGNEDTEXT
  2
AcDbArcAlignedText
  3
ATEXT|AutoCAD Express Tool|expresstools@autodesk.com
 90
    32768
280
     0
281
     1
  0
CLASS
  1
TABLESTYLE
  2
AcDbTableStyle
  3
ObjectDBX Classes
 90
     2047
280
     0
281
     0
  0
ENDSEC
  0
SECTION
  2
TABLES
  0
TABLE
  2
VPORT
  5
8
330
0
100
AcDbSymbolTable
 70
     3
  0
VPORT
  5
9364
330
8
100
AcDbSymbolTableRecord
100
AcDbViewportTableRecord
  2
*Active
 70
     0
 10
0.0
 20
0.0
 11
1.0
 21
1.0
 12
110.3027372973768
 22
122.0329305297148
 13
0.0
 23
0.0
 14
10.0
 24
10.0
 15
0.0
 25
0.0
 16
0.0
 26
0.0
 36
1.0
 17
0.0
 27
0.0
 37
0.0
 40
105.6099620972207
 41
1.766467065868263
 42
50.0
 43
0.0
 44
0.0
 50
0.0
 51
0.0
 71
     0
 72
   100
 73
     1
 74
     1
 75
     0
 76
     0
 77
     0
 78
     0
281
     0
 65
     0
110
0.0
120
0.0
130
0.0
111
1.0
121
0.0
131
0.0
112
0.0
122
1.0
132
0.0
 79
     0
146
0.0
  0
ENDTAB
  0
TABLE
  2
LTYPE
  5
5
330
0
100
AcDbSymbolTable
 70
     4
  0
LTYPE
  5
14
330
5
100
AcDbSymbolTableRecord
100
AcDbLinetypeTableRecord
  2
ByBlock
 70
     0
  3

 72
    65
 73
     0
 40
0.0
  0
LTYPE
  5
15
330
5
100
AcDbSymbolTableRecord
100
AcDbLinetypeTableRecord
  2
ByLayer
 70
     0
  3

 72
    65
 73
     0
 40
0.0
  0
LTYPE
  5
16
330
5
100
AcDbSymbolTableRecord
100
AcDbLinetypeTableRecord
  2
CONTINUOUS
 70
     0
  3
Solid line
 72
    65
 73
     0
 40
0.0
  0
LTYPE
  5
1F5
330
5
100
AcDbSymbolTableRecord
100
AcDbLinetypeTableRecord
  2
CENTER
 70
     0
  3
____ _ ____ _ ____ _ ____ _ ____ _ ____ _ ____
 72
    65
 73
     4
 40
0.6
 49
0.375
 74
     0
 49
-0.075
 74
     0
 49
0.075
 74
     0
 49
-0.075
 74
     0
  0
LTYPE
  5
89B1
330
5
100
AcDbSymbolTableRecord
100
AcDbLinetypeTableRecord
  2
HIDDEN
 70
     0
  3
- - - - - - - - - - - - - - - - - - - -
 72
    65
 73
     2
 40
0.2
 49
0.1
 74
     0
 49
-0.1
 74
     0
  0
ENDTAB
  0
TABLE
  2
LAYER
  5
2
102
{ACAD_XDICTIONARY
360
46EE
102
}
330
0
100
AcDbSymbolTable
 70
     3
  0
LAYER
  5
10
330
2
100
AcDbSymbolTableRecord
100
AcDbLayerTableRecord
  2
0
 70
     0
 62
     7
  6
CONTINUOUS
370
    15
390
F
  0
LAYER
  5
FE3
330
2
100
AcDbSymbolTableRecord
100
AcDbLayerTableRecord
  2
Defpoints
 70
     0
 62
     7
  6
CONTINUOUS
290
     0
370
    -3
390
F
  0
LAYER
  5
46F1
330
2
100
AcDbSymbolTableRecord
100
AcDbLayerTableRecord
  2
Dimension
 70
     0
 62
     7
  6
CONTINUOUS
370
     0
390
F
1001
AcAecLayerStandard
1000

1000

  0
ENDTAB
  0
TABLE
  2
STYLE
  5
3
330
0
100
AcDbSymbolTable
 70
     1
  0
STYLE
  5
11
330
3
100
AcDbSymbolTableRecord
100
AcDbTextStyleTableRecord
  2
STANDARD
 70
     0
 40
0.0
 41
1.0
 50
0.0
 71
     0
 42
0.2
  3
ARIAL.TTF
  4

1001
ACAD
1000
Arial
1071
       34
  0
ENDTAB
  0
TABLE
  2
VIEW
  5
6
330
0
100
AcDbSymbolTable
 70
     0
  0
ENDTAB
  0
TABLE
  2
UCS
  5
7
330
0
100
AcDbSymbolTable
 70
     0
  0
ENDTAB
  0
TABLE
  2
APPID
  5
9
330
0
100
AcDbSymbolTable
 70
    12
  0
APPID
  5
212
330
9
100
AcDbSymbolTableRecord
100
AcDbRegAppTableRecord
  2
ACAD
 70
     0
  0
APPID
  5
9B1
330
9
100
AcDbSymbolTableRecord
100
AcDbRegAppTableRecord
  2
DCO15
 70
     0
  0
APPID
  5
4673
330
9
100
AcDbSymbolTableRecord
100
AcDbRegAppTableRecord
  2
ACAD_EXEMPT_FROM_CAD_STANDARDS
 70
     0
  0
APPID
  5
46F2
330
9
100
AcDbSymbolTableRecord
100
AcDbRegAppTableRecord
  2
AcAecLayerStandard
 70
     0
  0
APPID
  5
46F5
330
9
100
AcDbSymbolTableRecord
100
AcDbRegAppTableRecord
  2
ACAD_DSTYLE_DIMTEXT_FILL
 70
     0
  0
APPID
  5
46F6
330
9
100
AcDbSymbolTableRecord
100
AcDbRegAppTableRecord
  2
ACAD_DSTYLE_DIMEXT_LENGTH
 70
     0
  0
APPID
  5
46F7
330
9
100
AcDbSymbolTableRecord
100
AcDbRegAppTableRecord
  2
ACAD_DSTYLE_DIMEXT_ENABLED
 70
     0
  0
APPID
  5
46F8
330
9
100
AcDbSymbolTableRecord
100
AcDbRegAppTableRecord
  2
ACAD_DSTYLE_DIM_LINETYPE
 70
     0
  0
APPID
  5
46F9
330
9
100
AcDbSymbolTableRecord
100
AcDbRegAppTableRecord
  2
ACAD_DSTYLE_DIM_EXT1_LINETYPE
 70
     0
  0
APPID
  5
46FA
330
9
100
AcDbSymbolTableRecord
100
AcDbRegAppTableRecord
  2
ACAD_DSTYLE_DIM_EXT2_LINETYPE
 70
     0
  0
APPID
  5
4914
330
9
100
AcDbSymbolTableRecord
100
AcDbRegAppTableRecord
  2
ACAD_DSTYLE_DIMJOGGED_JOGANGLE_SYMBOL
 70
     0
  0
APPID
  5
4D98
330
9
100
AcDbSymbolTableRecord
100
AcDbRegAppTableRecord
  2
ACAD_DSTYLE_DIMARC_LENGTH_SYMBOL
 70
     0
  0
ENDTAB
  0
TABLE
  2
DIMSTYLE
  5
A
330
0
100
AcDbSymbolTable
 70
     2
100
AcDbDimStyleTable
 71
     1
340
229
  0
DIMSTYLE
105
229
102
{ACAD_REACTORS
330
8C6E
330
8C96
330
8CDF
330
8D0B
330
8D19
330
8DD0
330
8DEC
330
8DFA
330
8EBA
330
8DDE
330
8FF1
330
8FE8
330
8FE9
330
8FEA
330
8FEB
330
8FEC
330
8FED
330
8FEE
330
8FEF
330
8FF0
330
91E0
330
91D2
330
92BE
330
92DE
330
9307
102
}
330
A
100
AcDbSymbolTableRecord
100
AcDbDimStyleTableRecord
  2
STANDARD
 70
     0
 41
1.5
 42
1.0
 43
1.0
 44
0.5
 47
0.01
 48
0.01
 71
     1
 73
     0
 74
     0
 77
     1
 78
     1
140
1.5
141
0.0
146
0.7
147
0.5
271
     2
272
     2
283
     0
340
11
1001
ACAD_DSTYLE_DIMEXT_LENGTH
1070
   378
1040
0.18
1001
ACAD_DSTYLE_DIMEXT_ENABLED
1070
   383
1070
     0
1001
ACAD_DSTYLE_DIMARC_LENGTH_SYMBOL
1070
   379
1070
     0
1001
ACAD_DSTYLE_DIMJOGGED_JOGANGLE_SYMBOL
1070
   384
1040
0.7853981633974483
  0
ENDTAB
  0
TABLE
  2
BLOCK_RECORD
  5
1
330
0
100
AcDbSymbolTable
 70
    27
  0
BLOCK_RECORD
  5
1F
102
{ACAD_XDICTIONARY
360
467E
102
}
330
1
100
AcDbSymbolTableRecord
100
AcDbBlockTableRecord
  2
*MODEL_SPACE
340
22
  0
BLOCK_RECORD
  5
1B
330
1
100
AcDbSymbolTableRecord
100
AcDbBlockTableRecord
  2
*PAPER_SPACE
340
1E
  0
BLOCK_RECORD
  5
213
330
1
100
AcDbSymbolTableRecord
100
AcDbBlockTableRecord
  2
_FILLED
340
0
  0
BLOCK_RECORD
  5
8C6F
330
1
100
AcDbSymbolTableRecord
100
AcDbBlockTableRecord
  2
*D1
340
0
  0
BLOCK_RECORD
  5
8C97
330
1
100
AcDbSymbolTableRecord
100
AcDbBlockTableRecord
  2
*D2
340
0
  0
BLOCK_RECORD
  5
8CE0
330
1
100
AcDbSymbolTableRecord
100
AcDbBlockTableRecord
  2
*D3
340
0
  0
BLOCK_RECORD
  5
8D0C
330
1
100
AcDbSymbolTableRecord
100
AcDbBlockTableRecord
  2
*D4
340
0
  0
BLOCK_RECORD
  5
8D1A
330
1
100
AcDbSymbolTableRecord
100
AcDbBlockTableRecord
  2
*D5
340
0
  0
BLOCK_RECORD
  5
8DD1
330
1
100
AcDbSymbolTableRecord
100
AcDbBlockTableRecord
  2
*D6
340
0
  0
BLOCK_RECORD
  5
8DDF
330
1
100
AcDbSymbolTableRecord
100
AcDbBlockTableRecord
  2
*D7
340
0
  0
BLOCK_RECORD
  5
8DED
330
1
100
AcDbSymbolTableRecord
100
AcDbBlockTableRecord
  2
*D8
340
0
  0
BLOCK_RECORD
  5
8DFB
330
1
100
AcDbSymbolTableRecord
100
AcDbBlockTableRecord
  2
*D9
340
0
  0
BLOCK_RECORD
  5
8EBB
330
1
100
AcDbSymbolTableRecord
100
AcDbBlockTableRecord
  2
*D10
340
0
  0
BLOCK_RECORD
  5
8FF2
330
1
100
AcDbSymbolTableRecord
100
AcDbBlockTableRecord
  2
*D11
340
0
  0
BLOCK_RECORD
  5
8FFF
330
1
100
AcDbSymbolTableRecord
100
AcDbBlockTableRecord
  2
*D12
340
0
  0
BLOCK_RECORD
  5
900B
330
1
100
AcDbSymbolTableRecord
100
AcDbBlockTableRecord
  2
*D13
340
0
  0
BLOCK_RECORD
  5
9018
330
1
100
AcDbSymbolTableRecord
100
AcDbBlockTableRecord
  2
*D14
340
0
  0
BLOCK_RECORD
  5
9025
330
1
100
AcDbSymbolTableRecord
100
AcDbBlockTableRecord
  2
*D15
340
0
  0
BLOCK_RECORD
  5
9032
330
1
100
AcDbSymbolTableRecord
100
AcDbBlockTableRecord
  2
*D16
340
0
  0
BLOCK_RECORD
  5
903F
330
1
100
AcDbSymbolTableRecord
100
AcDbBlockTableRecord
  2
*D17
340
0
  0
BLOCK_RECORD
  5
904C
330
1
100
AcDbSymbolTableRecord
100
AcDbBlockTableRecord
  2
*D18
340
0
  0
BLOCK_RECORD
  5
9059
330
1
100
AcDbSymbolTableRecord
100
AcDbBlockTableRecord
  2
*D19
340
0
  0
BLOCK_RECORD
  5
9066
330
1
100
AcDbSymbolTableRecord
100
AcDbBlockTableRecord
  2
*D20
340
0
  0
BLOCK_RECORD
  5
91D3
330
1
100
AcDbSymbolTableRecord
100
AcDbBlockTableRecord
  2
*D21
340
0
  0
BLOCK_RECORD
  5
91E1
330
1
100
AcDbSymbolTableRecord
100
AcDbBlockTableRecord
  2
*D22
340
0
  0
BLOCK_RECORD
  5
92BF
330
1
100
AcDbSymbolTableRecord
100
AcDbBlockTableRecord
  2
*D23
340
0
  0
BLOCK_RECORD
  5
92DF
330
1
100
AcDbSymbolTableRecord
100
AcDbBlockTableRecord
  2
*D24
340
0
  0
BLOCK_RECORD
  5
9308
330
1
100
AcDbSymbolTableRecord
100
AcDbBlockTableRecord
  2
*D25
340
0
  0
ENDTAB
  0
ENDSEC
  0
SECTION
  2
BLOCKS
  0
BLOCK
  5
20
330
1F
100
AcDbEntity
  8
0
100
AcDbBlockBegin
  2
*MODEL_SPACE
 70
     0
 10
0.0
 20
0.0
 30
0.0
  3
*MODEL_SPACE
  1

  0
ENDBLK
  5
21
330
1F
100
AcDbEntity
  8
0
100
AcDbBlockEnd
  0
BLOCK
  5
1C
330
1B
100
AcDbEntity
 67
     1
  8
0
100
AcDbBlockBegin
  2
*PAPER_SPACE
 70
     0
 10
0.0
 20
0.0
 30
0.0
  3
*PAPER_SPACE
  1

  0
ENDBLK
  5
1D
330
1B
100
AcDbEntity
 67
     1
  8
0
100
AcDbBlockEnd
  0
BLOCK
  5
7F8
330
213
100
AcDbEntity
  8
0
100
AcDbBlockBegin
  2
_FILLED
 70
     0
 10
0.0
 20
0.0
 30
0.0
  3
_FILLED
  1

  0
SOLID
  5
7F9
330
213
100
AcDbEntity
  8
0
  6
ByBlock
 62
     0
100
AcDbTrace
 10
0.0
 20
0.0
 30
0.0
 11
-1.0
 21
0.1666666667
 31
0.0
 12
-1.0
 22
-0.1666666667
 32
0.0
 13
-1.0
 23
-0.1666666667
 33
0.0
  0
ENDBLK
  5
7FA
330
213
100
AcDbEntity
  8
0
  6
ByBlock
 62
     0
100
AcDbBlockEnd
  0
BLOCK
  5
8C79
330
8C6F
100
AcDbEntity
  8
0
370
     0
100
AcDbBlockBegin
  2
*D1
 70
     1
 10
0.0
 20
0.0
 30
0.0
  3
*D1
  1

  0
LINE
  5
8DC7
330
8C6F
100
AcDbEntity
  8
Dimension
 62
     0
370
    -2
100
AcDbLine
 10
37.70901875716075
 20
121.9856286327395
 30
0.0
 11
37.70901875716075
 21
105.7749868502302
 31
0.0
  0
LINE
  5
8DC8
330
8C6F
100
AcDbEntity
  8
Dimension
 62
     0
370
    -2
100
AcDbLine
 10
56.60901875729203
 20
121.9856286327395
 30
0.0
 11
56.60901875729203
 21
105.7749868502302
 31
0.0
  0
LINE
  5
8DC9
330
8C6F
100
AcDbEntity
  8
Dimension
 62
     0
370
    -2
100
AcDbLine
 10
39.20901875716075
 20
106.2749868502302
 30
0.0
 11
55.10901875729203
 21
106.2749868502302
 31
0.0
  0
SOLID
  5
8DCA
330
8C6F
100
AcDbEntity
  8
Dimension
 62
     0
370
     0
100
AcDbTrace
 10
39.20901875716075
 20
106.5249868502302
 30
0.0
 11
39.20901875716075
 21
106.0249868502302
 31
0.0
 12
37.70901875716075
 22
106.2749868502302
 32
0.0
 13
37.70901875716075
 23
106.2749868502302
 33
0.0
  0
SOLID
  5
8DCB
330
8C6F
100
AcDbEntity
  8
Dimension
 62
     0
370
     0
100
AcDbTrace
 10
55.10901875729203
 20
106.5249868502302
 30
0.0
 11
55.10901875729203
 21
106.0249868502302
 31
0.0
 12
56.60901875729203
 22
106.2749868502302
 32
0.0
 13
56.60901875729203
 23
106.2749868502302
 33
0.0
  0
MTEXT
  5
8DCC
330
8C6F
100
AcDbEntity
  8
Dimension
 62
     0
370
     0
100
AcDbMText
 10
47.15901875722638
 20
107.5408463318128
 30
0.0
 40
1.5
 41
0.0
 71
     5
 72
     1
  1
19
 73
     1
 44
1.0
1001
ACAD
1000
MTEXTBEGIN
1070
    73
1070
     1
1070
    44
1040
1.0
1070
    74
1070
     0
1000
MTEXTEND
  0
POINT
  5
8DCD
330
8C6F
100
AcDbEntity
  8
Defpoints
 62
     0
370
     0
100
AcDbPoint
 10
37.70901875716075
 20
122.9856286327395
 30
0.0
  0
POINT
  5
8DCE
330
8C6F
100
AcDbEntity
  8
Defpoints
 62
     0
370
     0
100
AcDbPoint
 10
56.60901875729203
 20
122.9856286327395
 30
0.0
  0
POINT
  5
8DCF
330
8C6F
100
AcDbEntity
  8
Defpoints
 62
     0
370
     0
100
AcDbPoint
 10
56.60901875729203
 20
106.2749868502302
 30
0.0
  0
ENDBLK
  5
8C7A
330
8C6F
100
AcDbEntity
  8
0
370
     0
100
AcDbBlockEnd
  0
BLOCK
  5
8CA2
330
8C97
100
AcDbEntity
  8
0
370
     0
100
AcDbBlockBegin
  2
*D2
 70
     1
 10
0.0
 20
0.0
 30
0.0
  3
*D2
  1

  0
LINE
  5
8DBD
330
8C97
100
AcDbEntity
  8
Dimension
 62
     0
370
    -2
100
AcDbLine
 10
37.70901875716075
 20
121.9855848566862
 30
0.0
 11
37.70901875716075
 21
105.7749868502302
 31
0.0
  0
LINE
  5
8DBE
330
8C97
100
AcDbEntity
  8
Dimension
 62
     0
370
    -2
100
AcDbLine
 10
35.40901875716074
 20
128.822187397099
 30
0.0
 11
35.40901875716074
 21
105.7749868502302
 31
0.0
  0
LINE
  5
8DBF
330
8C97
100
AcDbEntity
  8
Dimension
 62
     0
370
    -2
100
AcDbLine
 10
39.20901875716075
 20
106.2749868502302
 30
0.0
 11
40.70901875716074
 21
106.2749868502302
 31
0.0
  0
LINE
  5
8DC0
330
8C97
100
AcDbEntity
  8
Dimension
 62
     0
370
    -2
100
AcDbLine
 10
33.90901875716074
 20
106.2749868502302
 30
0.0
 11
25.77982366848407
 21
106.2749868502302
 31
0.0
  0
SOLID
  5
8DC1
330
8C97
100
AcDbEntity
  8
Dimension
 62
     0
370
     0
100
AcDbTrace
 10
39.20901875716075
 20
106.5249868502302
 30
0.0
 11
39.20901875716075
 21
106.0249868502302
 31
0.0
 12
37.70901875716075
 22
106.2749868502302
 32
0.0
 13
37.70901875716075
 23
106.2749868502302
 33
0.0
  0
SOLID
  5
8DC2
330
8C97
100
AcDbEntity
  8
Dimension
 62
     0
370
     0
100
AcDbTrace
 10
33.90901875716074
 20
106.5249868502302
 30
0.0
 11
33.90901875716074
 21
106.0249868502302
 31
0.0
 12
35.40901875716074
 22
106.2749868502302
 32
0.0
 13
35.40901875716074
 23
106.2749868502302
 33
0.0
  0
MTEXT
  5
8DC3
330
8C97
100
AcDbEntity
  8
Dimension
 62
     0
370
     0
100
AcDbMText
 10
29.09442121282241
 20
107.5413579279928
 30
0.0
 40
1.5
 41
0.0
 71
     5
 72
     1
  1
2.3{\H1.050000;±0.3}
 73
     1
 44
1.0
1001
ACAD
1000
MTEXTBEGIN
1070
    73
1070
     1
1070
    44
1040
1.0
1070
    74
1070
     0
1000
MTEXTEND
  0
POINT
  5
8DC4
330
8C97
100
AcDbEntity
  8
Defpoints
 62
     0
370
     0
100
AcDbPoint
 10
37.70901875716075
 20
122.9855848566862
 30
0.0
  0
POINT
  5
8DC5
330
8C97
100
AcDbEntity
  8
Defpoints
 62
     0
370
     0
100
AcDbPoint
 10
35.40901875716074
 20
129.822187397099
 30
0.0
  0
POINT
  5
8DC6
330
8C97
100
AcDbEntity
  8
Defpoints
 62
     0
370
     0
100
AcDbPoint
 10
35.40901875716074
 20
106.2749868502302
 30
0.0
  0
ENDBLK
  5
8CA3
330
8C97
100
AcDbEntity
  8
0
370
     0
100
AcDbBlockEnd
  0
BLOCK
  5
8CEB
330
8CE0
100
AcDbEntity
  8
0
370
     0
100
AcDbBlockBegin
  2
*D3
 70
     1
 10
0.0
 20
0.0
 30
0.0
  3
*D3
  1

  0
LINE
  5
8DB3
330
8CE0
100
AcDbEntity
  8
Dimension
 62
     0
370
    -2
100
AcDbLine
 10
56.60901875729203
 20
121.9855848566862
 30
0.0
 11
56.60901875729203
 21
105.7749868502302
 31
0.0
  0
LINE
  5
8DB4
330
8CE0
100
AcDbEntity
  8
Dimension
 62
     0
370
    -2
100
AcDbLine
 10
63.10901875700887
 20
129.0721841553866
 30
0.0
 11
63.10901875700887
 21
105.7749868502302
 31
0.0
  0
LINE
  5
8DB5
330
8CE0
100
AcDbEntity
  8
Dimension
 62
     0
370
    -2
100
AcDbLine
 10
58.10901875729204
 20
106.2749868502302
 30
0.0
 11
61.60901875700886
 21
106.2749868502302
 31
0.0
  0
LINE
  5
8DB6
330
8CE0
100
AcDbEntity
  8
Dimension
 62
     0
370
    -2
100
AcDbLine
 10
63.10901875700887
 20
106.2749868502302
 30
0.0
 11
71.22081957556275
 21
106.2749868502302
 31
0.0
  0
SOLID
  5
8DB7
330
8CE0
100
AcDbEntity
  8
Dimension
 62
     0
370
     0
100
AcDbTrace
 10
58.10901875729204
 20
106.5249868502302
 30
0.0
 11
58.10901875729204
 21
106.0249868502302
 31
0.0
 12
56.60901875729203
 22
106.2749868502302
 32
0.0
 13
56.60901875729203
 23
106.2749868502302
 33
0.0
  0
SOLID
  5
8DB8
330
8CE0
100
AcDbEntity
  8
Dimension
 62
     0
370
     0
100
AcDbTrace
 10
61.60901875700886
 20
106.5249868502302
 30
0.0
 11
61.60901875700886
 21
106.0249868502302
 31
0.0
 12
63.10901875700887
 22
106.2749868502302
 32
0.0
 13
63.10901875700887
 23
106.2749868502302
 33
0.0
  0
MTEXT
  5
8DB9
330
8CE0
100
AcDbEntity
  8
Dimension
 62
     0
370
     0
100
AcDbMText
 10
67.91491916628581
 20
107.5408463318128
 30
0.0
 40
1.5
 41
0.0
 71
     5
 72
     1
  1
6.5{\H1.050000;±0.3}
 73
     1
 44
1.0
1001
ACAD
1000
MTEXTBEGIN
1070
    73
1070
     1
1070
    44
1040
1.0
1070
    74
1070
     0
1000
MTEXTEND
  0
POINT
  5
8DBA
330
8CE0
100
AcDbEntity
  8
Defpoints
 62
     0
370
     0
100
AcDbPoint
 10
56.60901875729203
 20
122.9855848566862
 30
0.0
  0
POINT
  5
8DBB
330
8CE0
100
AcDbEntity
  8
Defpoints
 62
     0
370
     0
100
AcDbPoint
 10
63.10901875700887
 20
130.0721841553866
 30
0.0
  0
POINT
  5
8DBC
330
8CE0
100
AcDbEntity
  8
Defpoints
 62
     0
370
     0
100
AcDbPoint
 10
63.10901875700887
 20
106.2749868502302
 30
0.0
  0
ENDBLK
  5
8CEC
330
8CE0
100
AcDbEntity
  8
0
370
     0
100
AcDbBlockEnd
  0
BLOCK
  5
8D17
330
8D0C
100
AcDbEntity
  8
0
370
     0
100
AcDbBlockBegin
  2
*D4
 70
     1
 10
0.0
 20
0.0
 30
0.0
  3
*D4
  1

  0
LINE
  5
8D82
330
8D0C
100
AcDbEntity
  8
Dimension
 62
     0
370
    -2
100
AcDbLine
 10
59.10901875700886
 20
128.9855848565971
 30
0.0
 11
59.10901875700886
 21
116.4891302346631
 31
0.0
  0
LINE
  5
8D83
330
8D0C
100
AcDbEntity
  8
Dimension
 62
     0
370
    -2
100
AcDbLine
 10
63.10901875700887
 20
129.0721841553866
 30
0.0
 11
63.10901875700887
 21
116.4891302346631
 31
0.0
  0
LINE
  5
8D84
330
8D0C
100
AcDbEntity
  8
Dimension
 62
     0
370
    -2
100
AcDbLine
 10
57.60901875700887
 20
116.9891302346631
 30
0.0
 11
56.10901875700887
 21
116.9891302346631
 31
0.0
  0
LINE
  5
8D85
330
8D0C
100
AcDbEntity
  8
Dimension
 62
     0
370
    -2
100
AcDbLine
 10
64.60901875700887
 20
116.9891302346631
 30
0.0
 11
66.10901875700887
 21
116.9891302346631
 31
0.0
  0
SOLID
  5
8D86
330
8D0C
100
AcDbEntity
  8
Dimension
 62
     0
370
     0
100
AcDbTrace
 10
57.60901875700887
 20
117.2391302346631
 30
0.0
 11
57.60901875700887
 21
116.7391302346631
 31
0.0
 12
59.10901875700886
 22
116.9891302346631
 32
0.0
 13
59.10901875700886
 23
116.9891302346631
 33
0.0
  0
SOLID
  5
8D87
330
8D0C
100
AcDbEntity
  8
Dimension
 62
     0
370
     0
100
AcDbTrace
 10
64.60901875700887
 20
117.2391302346631
 30
0.0
 11
64.60901875700887
 21
116.7391302346631
 31
0.0
 12
63.10901875700887
 22
116.9891302346631
 32
0.0
 13
63.10901875700887
 23
116.9891302346631
 33
0.0
  0
MTEXT
  5
8D88
330
8D0C
100
AcDbEntity
  8
Dimension
 62
     0
370
     0
100
AcDbMText
 10
61.10901875700887
 20
118.2391302346631
 30
0.0
 40
1.5
 41
0.0
 71
     5
 72
     1
  1
4
 73
     1
 44
1.0
1001
ACAD
1000
MTEXTBEGIN
1070
    73
1070
     1
1070
    44
1040
1.0
1070
    74
1070
     0
1000
MTEXTEND
  0
POINT
  5
8D89
330
8D0C
100
AcDbEntity
  8
Defpoints
 62
     0
370
     0
100
AcDbPoint
 10
59.10901875700886
 20
129.9855848565971
 30
0.0
  0
POINT
  5
8D8A
330
8D0C
100
AcDbEntity
  8
Defpoints
 62
     0
370
     0
100
AcDbPoint
 10
63.10901875700887
 20
130.0721841553866
 30
0.0
  0
POINT
  5
8D8B
330
8D0C
100
AcDbEntity
  8
Defpoints
 62
     0
370
     0
100
AcDbPoint
 10
63.10901875700887
 20
116.9891302346631
 30
0.0
  0
ENDBLK
  5
8D18
330
8D0C
100
AcDbEntity
  8
0
370
     0
100
AcDbBlockEnd
  0
BLOCK
  5
8D25
330
8D1A
100
AcDbEntity
  8
0
370
     0
100
AcDbBlockBegin
  2
*D5
 70
     1
 10
0.0
 20
0.0
 30
0.0
  3
*D5
  1

  0
LINE
  5
8DA9
330
8D1A
100
AcDbEntity
  8
Dimension
 62
     0
370
    -2
100
AcDbLine
 10
57.6090187571107
 20
126.6856337970625
 30
0.0
 11
57.6090187571107
 21
111.6645695215353
 31
0.0
  0
LINE
  5
8DAA
330
8D1A
100
AcDbEntity
  8
Dimension
 62
     0
370
    -2
100
AcDbLine
 10
56.60901875729203
 20
121.9855848566862
 30
0.0
 11
56.60901875729203
 21
111.6645695215353
 31
0.0
  0
LINE
  5
8DAB
330
8D1A
100
AcDbEntity
  8
Dimension
 62
     0
370
    -2
100
AcDbLine
 10
59.1090187571107
 20
112.1645695215353
 30
0.0
 11
60.60901875711071
 21
112.1645695215353
 31
0.0
  0
LINE
  5
8DAC
330
8D1A
100
AcDbEntity
  8
Dimension
 62
     0
370
    -2
100
AcDbLine
 10
55.10901875729203
 20
112.1645695215353
 30
0.0
 11
52.05649488280363
 21
112.1645695215353
 31
0.0
  0
SOLID
  5
8DAD
330
8D1A
100
AcDbEntity
  8
Dimension
 62
     0
370
     0
100
AcDbTrace
 10
59.1090187571107
 20
112.4145695215353
 30
0.0
 11
59.1090187571107
 21
111.9145695215354
 31
0.0
 12
57.6090187571107
 22
112.1645695215353
 32
0.0
 13
57.6090187571107
 23
112.1645695215353
 33
0.0
  0
SOLID
  5
8DAE
330
8D1A
100
AcDbEntity
  8
Dimension
 62
     0
370
     0
100
AcDbTrace
 10
55.10901875729203
 20
112.4145695215353
 30
0.0
 11
55.10901875729203
 21
111.9145695215354
 31
0.0
 12
56.60901875729203
 22
112.1645695215353
 32
0.0
 13
56.60901875729203
 23
112.1645695215353
 33
0.0
  0
MTEXT
  5
8DAF
330
8D1A
100
AcDbEntity
  8
Dimension
 62
     0
370
     0
100
AcDbMText
 10
52.83275682004783
 20
113.4176390986158
 30
0.0
 40
1.5
 41
0.0
 71
     5
 72
     1
  1
1
 73
     1
 44
1.0
1001
ACAD
1000
MTEXTBEGIN
1070
    73
1070
     1
1070
    44
1040
1.0
1070
    74
1070
     0
1000
MTEXTEND
  0
POINT
  5
8DB0
330
8D1A
100
AcDbEntity
  8
Defpoints
 62
     0
370
     0
100
AcDbPoint
 10
57.6090187571107
 20
127.6856337970625
 30
0.0
  0
POINT
  5
8DB1
330
8D1A
100
AcDbEntity
  8
Defpoints
 62
     0
370
     0
100
AcDbPoint
 10
56.60901875729203
 20
122.9855848566862
 30
0.0
  0
POINT
  5
8DB2
330
8D1A
100
AcDbEntity
  8
Defpoints
 62
     0
370
     0
100
AcDbPoint
 10
56.60901875729203
 20
112.1645695215353
 30
0.0
  0
ENDBLK
  5
8D26
330
8D1A
100
AcDbEntity
  8
0
370
     0
100
AcDbBlockEnd
  0
BLOCK
  5
8DDC
330
8DD1
100
AcDbEntity
  8
0
370
     0
100
AcDbBlockBegin
  2
*D6
 70
     1
 10
0.0
 20
0.0
 30
0.0
  3
*D6
  1

  0
LINE
  5
8FA1
330
8DD1
100
AcDbEntity
  8
Dimension
 62
     0
370
    -2
100
AcDbLine
 10
63.95901875729009
 20
129.9855848565971
 30
0.0
 11
70.4389255356546
 21
129.9855848565971
 31
0.0
  0
LINE
  5
8FA2
330
8DD1
100
AcDbEntity
  8
Dimension
 62
     0
370
    -2
100
AcDbLine
 10
63.95900660593011
 20
130.9855848565971
 30
0.0
 11
70.4389255356546
 21
130.9855848565971
 31
0.0
  0
LINE
  5
8FA3
330
8DD1
100
AcDbEntity
  8
Dimension
 62
     0
370
    -2
100
AcDbLine
 10
69.9389255356546
 20
128.4855848565971
 30
0.0
 11
69.9389255356546
 21
126.9855848565971
 31
0.0
  0
LINE
  5
8FA4
330
8DD1
100
AcDbEntity
  8
Dimension
 62
     0
370
    -2
100
AcDbLine
 10
69.9389255356546
 20
132.4855848565971
 30
0.0
 11
69.9389255356546
 21
149.2264791003882
 31
0.0
  0
SOLID
  5
8FA5
330
8DD1
100
AcDbEntity
  8
Dimension
 62
     0
370
     0
100
AcDbTrace
 10
69.6889255356546
 20
128.4855848565971
 30
0.0
 11
70.18892553565461
 21
128.4855848565971
 31
0.0
 12
69.9389255356546
 22
129.9855848565971
 32
0.0
 13
69.9389255356546
 23
129.9855848565971
 33
0.0
  0
SOLID
  5
8FA6
330
8DD1
100
AcDbEntity
  8
Dimension
 62
     0
370
     0
100
AcDbTrace
 10
69.6889255356546
 20
132.4855848565971
 30
0.0
 11
70.18892553565461
 21
132.4855848565971
 31
0.0
 12
69.9389255356546
 22
130.9855848565971
 32
0.0
 13
69.9389255356546
 23
130.9855848565971
 33
0.0
  0
MTEXT
  5
8FA7
330
8DD1
100
AcDbEntity
  8
Dimension
 62
     0
370
     0
100
AcDbMText
 10
68.1615380868142
 20
145.0575159353132
 30
0.0
 40
1.5
 41
0.0
 71
     5
 72
     1
  1
Ø 1{\H1.050000;\S+0^ -0.006;}
 11
0.0000000000000001
 21
1.0
 31
0.0
 73
     1
 44
1.0
1001
ACAD
1000
MTEXTBEGIN
1070
    73
1070
     1
1070
    44
1040
1.0
1070
    74
1070
     0
1000
MTEXTEND
  0
POINT
  5
8FA8
330
8DD1
100
AcDbEntity
  8
Defpoints
 62
     0
370
     0
100
AcDbPoint
 10
62.95901875729009
 20
129.9855848565971
 30
0.0
  0
POINT
  5
8FA9
330
8DD1
100
AcDbEntity
  8
Defpoints
 62
     0
370
     0
100
AcDbPoint
 10
62.95900660593011
 20
130.9855848565971
 30
0.0
  0
POINT
  5
8FAA
330
8DD1
100
AcDbEntity
  8
Defpoints
 62
     0
370
     0
100
AcDbPoint
 10
69.9389255356546
 20
130.9855848565971
 30
0.0
  0
ENDBLK
  5
8DDD
330
8DD1
100
AcDbEntity
  8
0
370
     0
100
AcDbBlockEnd
  0
BLOCK
  5
8DEA
330
8DDF
100
AcDbEntity
  8
0
370
     0
100
AcDbBlockBegin
  2
*D7
 70
     1
 10
0.0
 20
0.0
 30
0.0
  3
*D7
  1

  0
LINE
  5
8FAB
330
8DDF
100
AcDbEntity
  8
Dimension
 62
     0
370
    -2
100
AcDbLine
 10
58.40901875748571
 20
127.4855848567174
 30
0.0
 11
76.38797238429956
 21
127.4855848567174
 31
0.0
  0
LINE
  5
8FAC
330
8DDF
100
AcDbEntity
  8
Dimension
 62
     0
370
    -2
100
AcDbLine
 10
58.40901875748571
 20
133.4855848564768
 30
0.0
 11
76.38797238429956
 21
133.4855848564768
 31
0.0
  0
LINE
  5
8FAD
330
8DDF
100
AcDbEntity
  8
Dimension
 62
     0
370
    -2
100
AcDbLine
 10
75.88797238429956
 20
128.9855848567174
 30
0.0
 11
75.88797238429956
 21
131.9855848564768
 31
0.0
  0
LINE
  5
8FAE
330
8DDF
100
AcDbEntity
  8
Dimension
 62
     0
370
    -2
100
AcDbLine
 10
75.88797238429956
 20
133.4855848564768
 30
0.0
 11
75.88797238429956
 21
149.3897433680338
 31
0.0
  0
SOLID
  5
8FAF
330
8DDF
100
AcDbEntity
  8
Dimension
 62
     0
370
     0
100
AcDbTrace
 10
75.63797238429955
 20
128.9855848567174
 30
0.0
 11
76.13797238429956
 21
128.9855848567174
 31
0.0
 12
75.88797238429956
 22
127.4855848567174
 32
0.0
 13
75.88797238429956
 23
127.4855848567174
 33
0.0
  0
SOLID
  5
8FB0
330
8DDF
100
AcDbEntity
  8
Dimension
 62
     0
370
     0
100
AcDbTrace
 10
75.63797238429955
 20
131.9855848564768
 30
0.0
 11
76.13797238429956
 21
131.9855848564768
 31
0.0
 12
75.88797238429956
 22
133.4855848564768
 32
0.0
 13
75.88797238429956
 23
133.4855848564768
 33
0.0
  0
MTEXT
  5
8FB1
330
8DDF
100
AcDbEntity
  8
Dimension
 62
     0
370
     0
100
AcDbMText
 10
74.11058493545915
 20
145.2193477336545
 30
0.0
 40
1.5
 41
0.0
 71
     5
 72
     1
  1
Ø 6{\H1.050000;\S+0^ -0.018;}
 11
0.0000000000000001
 21
1.0
 31
0.0
 73
     1
 44
1.0
1001
ACAD
1000
MTEXTBEGIN
1070
    73
1070
     1
1070
    44
1040
1.0
1070
    74
1070
     0
1000
MTEXTEND
  0
POINT
  5
8FB2
330
8DDF
100
AcDbEntity
  8
Defpoints
 62
     0
370
     0
100
AcDbPoint
 10
57.40901875748571
 20
127.4855848567174
 30
0.0
  0
POINT
  5
8FB3
330
8DDF
100
AcDbEntity
  8
Defpoints
 62
     0
370
     0
100
AcDbPoint
 10
57.40901875748571
 20
133.4855848564768
 30
0.0
  0
POINT
  5
8FB4
330
8DDF
100
AcDbEntity
  8
Defpoints
 62
     0
370
     0
100
AcDbPoint
 10
75.88797238429956
 20
133.4855848564768
 30
0.0
  0
ENDBLK
  5
8DEB
330
8DDF
100
AcDbEntity
  8
0
370
     0
100
AcDbBlockEnd
  0
BLOCK
  5
8DF8
330
8DED
100
AcDbEntity
  8
0
370
     0
100
AcDbBlockBegin
  2
*D8
 70
     1
 10
0.0
 20
0.0
 30
0.0
  3
*D8
  1

  0
LINE
  5
8FD4
330
8DED
100
AcDbEntity
  8
Dimension
 62
     0
370
    -2
100
AcDbLine
 10
34.90901875714829
 20
128.5605848563956
 30
0.0
 11
27.62219612379472
 21
128.5605848563956
 31
0.0
  0
LINE
  5
8FD5
330
8DED
100
AcDbEntity
  8
Dimension
 62
     0
370
    -2
100
AcDbLine
 10
34.90901875714829
 20
132.4105848567987
 30
0.0
 11
27.62219612379472
 21
132.4105848567987
 31
0.0
  0
LINE
  5
8FD6
330
8DED
100
AcDbEntity
  8
Dimension
 62
     0
370
    -2
100
AcDbLine
 10
28.12219612379472
 20
127.0605848563956
 30
0.0
 11
28.12219612379472
 21
125.5605848563956
 31
0.0
  0
LINE
  5
8FD7
330
8DED
100
AcDbEntity
  8
Dimension
 62
     0
370
    -2
100
AcDbLine
 10
28.12219612379472
 20
133.9105848567987
 30
0.0
 11
28.12219612379473
 21
146.6128347119971
 31
0.0
  0
SOLID
  5
8FD8
330
8DED
100
AcDbEntity
  8
Dimension
 62
     0
370
     0
100
AcDbTrace
 10
27.87219612379472
 20
127.0605848563956
 30
0.0
 11
28.37219612379472
 21
127.0605848563956
 31
0.0
 12
28.12219612379472
 22
128.5605848563956
 32
0.0
 13
28.12219612379472
 23
128.5605848563956
 33
0.0
  0
SOLID
  5
8FD9
330
8DED
100
AcDbEntity
  8
Dimension
 62
     0
370
     0
100
AcDbTrace
 10
27.87219612379472
 20
133.9105848567987
 30
0.0
 11
28.37219612379472
 21
133.9105848567987
 31
0.0
 12
28.12219612379472
 22
132.4105848567987
 32
0.0
 13
28.12219612379472
 23
132.4105848567987
 33
0.0
  0
MTEXT
  5
8FDA
330
8DED
100
AcDbEntity
  8
Dimension
 62
     0
370
     0
100
AcDbMText
 10
26.81438575544545
 20
143.6387555851213
 30
0.0
 40
1.5
 41
0.0
 71
     5
 72
     1
  1
Ø 3.9
 11
0.0000000000000001
 21
1.0
 31
0.0
 73
     1
 44
1.0
1001
ACAD
1000
MTEXTBEGIN
1070
    73
1070
     1
1070
    44
1040
1.0
1070
    74
1070
     0
1000
MTEXTEND
  0
POINT
  5
8FDB
330
8DED
100
AcDbEntity
  8
Defpoints
 62
     0
370
     0
100
AcDbPoint
 10
35.90901875714829
 20
128.5605848563956
 30
0.0
  0
POINT
  5
8FDC
330
8DED
100
AcDbEntity
  8
Defpoints
 62
     0
370
     0
100
AcDbPoint
 10
35.90901875714829
 20
132.4105848567987
 30
0.0
  0
POINT
  5
8FDD
330
8DED
100
AcDbEntity
  8
Defpoints
 62
     0
370
     0
100
AcDbPoint
 10
28.12219612379472
 20
132.4105848567987
 30
0.0
  0
ENDBLK
  5
8DF9
330
8DED
100
AcDbEntity
  8
0
370
     0
100
AcDbBlockEnd
  0
BLOCK
  5
8E06
330
8DFB
100
AcDbEntity
  8
0
370
     0
100
AcDbBlockBegin
  2
*D9
 70
     1
 10
0.0
 20
0.0
 30
0.0
  3
*D9
  1

  0
LINE
  5
8FDE
330
8DFB
100
AcDbEntity
  8
Dimension
 62
     0
370
    -2
100
AcDbLine
 10
35.90901875696707
 20
127.4855848567174
 30
0.0
 11
20.56052096942681
 21
127.4855848567174
 31
0.0
  0
LINE
  5
8FDF
330
8DFB
100
AcDbEntity
  8
Dimension
 62
     0
370
    -2
100
AcDbLine
 10
35.90901875696707
 20
133.4855848564768
 30
0.0
 11
20.56052096942681
 21
133.4855848564768
 31
0.0
  0
LINE
  5
8FE0
330
8DFB
100
AcDbEntity
  8
Dimension
 62
     0
370
    -2
100
AcDbLine
 10
21.06052096942681
 20
128.9855848567174
 30
0.0
 11
21.06052096942681
 21
131.9855848564768
 31
0.0
  0
LINE
  5
8FE1
330
8DFB
100
AcDbEntity
  8
Dimension
 62
     0
370
    -2
100
AcDbLine
 10
21.06052096942681
 20
133.4855848564768
 30
0.0
 11
21.06052096942681
 21
149.1690553667116
 31
0.0
  0
SOLID
  5
8FE2
330
8DFB
100
AcDbEntity
  8
Dimension
 62
     0
370
     0
100
AcDbTrace
 10
20.81052096942681
 20
128.9855848567174
 30
0.0
 11
21.31052096942681
 21
128.9855848567174
 31
0.0
 12
21.06052096942681
 22
127.4855848567174
 32
0.0
 13
21.06052096942681
 23
127.4855848567174
 33
0.0
  0
SOLID
  5
8FE3
330
8DFB
100
AcDbEntity
  8
Dimension
 62
     0
370
     0
100
AcDbTrace
 10
20.81052096942681
 20
131.9855848564768
 30
0.0
 11
21.31052096942681
 21
131.9855848564768
 31
0.0
 12
21.06052096942681
 22
133.4855848564768
 32
0.0
 13
21.06052096942681
 23
133.4855848564768
 33
0.0
  0
MTEXT
  5
8FE4
330
8DFB
100
AcDbEntity
  8
Dimension
 62
     0
370
     0
100
AcDbMText
 10
19.28313352058641
 20
144.9986597323324
 30
0.0
 40
1.5
 41
0.0
 71
     5
 72
     1
  1
Ø 6{\H1.050000;\S+0^ -0.018;}
 11
0.0000000000000001
 21
1.0
 31
0.0
 73
     1
 44
1.0
1001
ACAD
1000
MTEXTBEGIN
1070
    73
1070
     1
1070
    44
1040
1.0
1070
    74
1070
     0
1000
MTEXTEND
  0
POINT
  5
8FE5
330
8DFB
100
AcDbEntity
  8
Defpoints
 62
     0
370
     0
100
AcDbPoint
 10
36.90901875696707
 20
127.4855848567174
 30
0.0
  0
POINT
  5
8FE6
330
8DFB
100
AcDbEntity
  8
Defpoints
 62
     0
370
     0
100
AcDbPoint
 10
36.90901875696707
 20
133.4855848564768
 30
0.0
  0
POINT
  5
8FE7
330
8DFB
100
AcDbEntity
  8
Defpoints
 62
     0
370
     0
100
AcDbPoint
 10
21.06052096942681
 20
133.4855848564768
 30
0.0
  0
ENDBLK
  5
8E07
330
8DFB
100
AcDbEntity
  8
0
370
     0
100
AcDbBlockEnd
  0
BLOCK
  5
8EC5
330
8EBB
100
AcDbEntity
  8
0
370
     0
100
AcDbBlockBegin
  2
*D10
 70
     1
 10
0.0
 20
0.0
 30
0.0
  3
*D10
  1

  0
LINE
  5
8FBF
330
8EBB
100
AcDbEntity
  8
Dimension
 62
     0
370
    -2
100
AcDbLine
 10
57.10901875738253
 20
122.4855848567768
 30
0.0
 11
83.14829443776044
 21
122.4855848567768
 31
0.0
  0
LINE
  5
8FC0
330
8EBB
100
AcDbEntity
  8
Dimension
 62
     0
370
    -2
100
AcDbLine
 10
57.10901875738253
 20
138.4855848564175
 30
0.0
 11
83.14829443776044
 21
138.4855848564174
 31
0.0
  0
LINE
  5
8FC1
330
8EBB
100
AcDbEntity
  8
Dimension
 62
     0
370
    -2
100
AcDbLine
 10
82.64829443776044
 20
123.9855848567768
 30
0.0
 11
82.64829443776044
 21
136.9855848564174
 31
0.0
  0
LINE
  5
8FC2
330
8EBB
100
AcDbEntity
  8
Dimension
 62
     0
370
    -2
100
AcDbLine
 10
82.64829443776044
 20
138.4855848564174
 30
0.0
 11
82.64829443776044
 21
146.585741242164
 31
0.0
  0
SOLID
  5
8FC3
330
8EBB
100
AcDbEntity
  8
Dimension
 62
     0
370
     0
100
AcDbTrace
 10
82.39829443776043
 20
123.9855848567768
 30
0.0
 11
82.89829443776044
 21
123.9855848567768
 31
0.0
 12
82.64829443776044
 22
122.4855848567768
 32
0.0
 13
82.64829443776044
 23
122.4855848567768
 33
0.0
  0
SOLID
  5
8FC4
330
8EBB
100
AcDbEntity
  8
Dimension
 62
     0
370
     0
100
AcDbTrace
 10
82.39829443776043
 20
136.9855848564174
 30
0.0
 11
82.89829443776044
 21
136.9855848564174
 31
0.0
 12
82.64829443776044
 22
138.4855848564174
 32
0.0
 13
82.64829443776044
 23
138.4855848564174
 33
0.0
  0
MTEXT
  5
8FC5
330
8EBB
100
AcDbEntity
  8
Dimension
 62
     0
370
     0
100
AcDbMText
 10
81.34048406941117
 20
143.9048067264751
 30
0.0
 40
1.5
 41
0.0
 71
     5
 72
     1
  1
Ø 16
 11
0.0000000000000001
 21
1.0
 31
0.0
 73
     1
 44
1.0
1001
ACAD
1000
MTEXTBEGIN
1070
    73
1070
     1
1070
    44
1040
1.0
1070
    74
1070
     0
1000
MTEXTEND
  0
POINT
  5
8FC6
330
8EBB
100
AcDbEntity
  8
Defpoints
 62
     0
370
     0
100
AcDbPoint
 10
56.10901875738253
 20
122.4855848567768
 30
0.0
  0
POINT
  5
8FC7
330
8EBB
100
AcDbEntity
  8
Defpoints
 62
     0
370
     0
100
AcDbPoint
 10
56.10901875738253
 20
138.4855848564175
 30
0.0
  0
POINT
  5
8FC8
330
8EBB
100
AcDbEntity
  8
Defpoints
 62
     0
370
     0
100
AcDbPoint
 10
82.64829443776044
 20
138.4855848564174
 30
0.0
  0
ENDBLK
  5
8EC6
330
8EBB
100
AcDbEntity
  8
0
370
     0
100
AcDbBlockEnd
  0
BLOCK
  5
8FFD
330
8FF2
100
AcDbEntity
  8
0
370
     0
100
AcDbBlockBegin
  2
*D11
 70
     1
 10
0.0
 20
0.0
 30
0.0
  3
*D11
  1

  0
LINE
  5
912F
330
8FF2
100
AcDbEntity
  8
Dimension
 62
     0
370
    -2
100
AcDbLine
 10
127.4884943793734
 20
122.4855848567768
 30
0.0
 11
153.5277700597513
 21
122.4855848567768
 31
0.0
  0
LINE
  5
9130
330
8FF2
100
AcDbEntity
  8
Dimension
 62
     0
370
    -2
100
AcDbLine
 10
127.4884943793734
 20
138.4855848564175
 30
0.0
 11
153.5277700597513
 21
138.4855848564175
 31
0.0
  0
LINE
  5
9131
330
8FF2
100
AcDbEntity
  8
Dimension
 62
     0
370
    -2
100
AcDbLine
 10
153.0277700597513
 20
123.9855848567768
 30
0.0
 11
153.0277700597513
 21
136.9855848564175
 31
0.0
  0
LINE
  5
9132
330
8FF2
100
AcDbEntity
  8
Dimension
 62
     0
370
    -2
100
AcDbLine
 10
153.0277700597513
 20
138.4855848564175
 30
0.0
 11
153.0277700597513
 21
146.585741242164
 31
0.0
  0
SOLID
  5
9133
330
8FF2
100
AcDbEntity
  8
Dimension
 62
     0
370
     0
100
AcDbTrace
 10
152.7777700597513
 20
123.9855848567768
 30
0.0
 11
153.2777700597513
 21
123.9855848567768
 31
0.0
 12
153.0277700597513
 22
122.4855848567768
 32
0.0
 13
153.0277700597513
 23
122.4855848567768
 33
0.0
  0
SOLID
  5
9134
330
8FF2
100
AcDbEntity
  8
Dimension
 62
     0
370
     0
100
AcDbTrace
 10
152.7777700597513
 20
136.9855848564175
 30
0.0
 11
153.2777700597513
 21
136.9855848564175
 31
0.0
 12
153.0277700597513
 22
138.4855848564175
 32
0.0
 13
153.0277700597513
 23
138.4855848564175
 33
0.0
  0
MTEXT
  5
9135
330
8FF2
100
AcDbEntity
  8
Dimension
 62
     0
370
     0
100
AcDbMText
 10
151.719959691402
 20
143.9048067264751
 30
0.0
 40
1.5
 41
0.0
 71
     5
 72
     1
  1
Ø 16
 11
0.0000000000000001
 21
1.0
 31
0.0
 73
     1
 44
1.0
1001
ACAD
1000
MTEXTBEGIN
1070
    73
1070
     1
1070
    44
1040
1.0
1070
    74
1070
     0
1000
MTEXTEND
  0
POINT
  5
9136
330
8FF2
100
AcDbEntity
  8
Defpoints
 62
     0
370
     0
100
AcDbPoint
 10
126.4884943793734
 20
122.4855848567768
 30
0.0
  0
POINT
  5
9137
330
8FF2
100
AcDbEntity
  8
Defpoints
 62
     0
370
     0
100
AcDbPoint
 10
126.4884943793734
 20
138.4855848564175
 30
0.0
  0
POINT
  5
9138
330
8FF2
100
AcDbEntity
  8
Defpoints
 62
     0
370
     0
100
AcDbPoint
 10
153.0277700597513
 20
138.4855848564175
 30
0.0
  0
ENDBLK
  5
8FFE
330
8FF2
100
AcDbEntity
  8
0
370
     0
100
AcDbBlockEnd
  0
BLOCK
  5
9009
330
8FFF
100
AcDbEntity
  8
0
370
     0
100
AcDbBlockBegin
  2
*D12
 70
     1
 10
0.0
 20
0.0
 30
0.0
  3
*D12
  1

  0
LINE
  5
90D6
330
8FFF
100
AcDbEntity
  8
Dimension
 62
     0
370
    -2
100
AcDbLine
 10
108.0884943791516
 20
121.9856286327395
 30
0.0
 11
108.0884943791516
 21
105.7749868502302
 31
0.0
  0
LINE
  5
90D7
330
8FFF
100
AcDbEntity
  8
Dimension
 62
     0
370
    -2
100
AcDbLine
 10
126.9884943792829
 20
121.9856286327395
 30
0.0
 11
126.9884943792829
 21
105.7749868502302
 31
0.0
  0
LINE
  5
90D8
330
8FFF
100
AcDbEntity
  8
Dimension
 62
     0
370
    -2
100
AcDbLine
 10
109.5884943791516
 20
106.2749868502302
 30
0.0
 11
125.4884943792829
 21
106.2749868502302
 31
0.0
  0
SOLID
  5
90D9
330
8FFF
100
AcDbEntity
  8
Dimension
 62
     0
370
     0
100
AcDbTrace
 10
109.5884943791516
 20
106.5249868502302
 30
0.0
 11
109.5884943791516
 21
106.0249868502302
 31
0.0
 12
108.0884943791516
 22
106.2749868502302
 32
0.0
 13
108.0884943791516
 23
106.2749868502302
 33
0.0
  0
SOLID
  5
90DA
330
8FFF
100
AcDbEntity
  8
Dimension
 62
     0
370
     0
100
AcDbTrace
 10
125.4884943792829
 20
106.5249868502302
 30
0.0
 11
125.4884943792829
 21
106.0249868502302
 31
0.0
 12
126.9884943792829
 22
106.2749868502302
 32
0.0
 13
126.9884943792829
 23
106.2749868502302
 33
0.0
  0
MTEXT
  5
90DB
330
8FFF
100
AcDbEntity
  8
Dimension
 62
     0
370
     0
100
AcDbMText
 10
117.5384943792172
 20
107.5408463318128
 30
0.0
 40
1.5
 41
0.0
 71
     5
 72
     1
  1
19
 73
     1
 44
1.0
1001
ACAD
1000
MTEXTBEGIN
1070
    73
1070
     1
1070
    44
1040
1.0
1070
    74
1070
     0
1000
MTEXTEND
  0
POINT
  5
90DC
330
8FFF
100
AcDbEntity
  8
Defpoints
 62
     0
370
     0
100
AcDbPoint
 10
108.0884943791516
 20
122.9856286327395
 30
0.0
  0
POINT
  5
90DD
330
8FFF
100
AcDbEntity
  8
Defpoints
 62
     0
370
     0
100
AcDbPoint
 10
126.9884943792829
 20
122.9856286327395
 30
0.0
  0
POINT
  5
90DE
330
8FFF
100
AcDbEntity
  8
Defpoints
 62
     0
370
     0
100
AcDbPoint
 10
126.9884943792829
 20
106.2749868502302
 30
0.0
  0
ENDBLK
  5
900A
330
8FFF
100
AcDbEntity
  8
0
370
     0
100
AcDbBlockEnd
  0
BLOCK
  5
9016
330
900B
100
AcDbEntity
  8
0
370
     0
100
AcDbBlockBegin
  2
*D13
 70
     1
 10
0.0
 20
0.0
 30
0.0
  3
*D13
  1

  0
LINE
  5
914B
330
900B
100
AcDbEntity
  8
Dimension
 62
     0
370
    -2
100
AcDbLine
 10
108.0884943791516
 20
121.9855848566862
 30
0.0
 11
108.0884943791516
 21
105.7749868502302
 31
0.0
  0
LINE
  5
914C
330
900B
100
AcDbEntity
  8
Dimension
 62
     0
370
    -2
100
AcDbLine
 10
100.7085051278487
 20
128.822206027999
 30
0.0
 11
100.7085051278487
 21
105.7749868502302
 31
0.0
  0
LINE
  5
914D
330
900B
100
AcDbEntity
  8
Dimension
 62
     0
370
    -2
100
AcDbLine
 10
106.5884943791516
 20
106.2749868502302
 30
0.0
 11
102.2085051278487
 21
106.2749868502302
 31
0.0
  0
SOLID
  5
914E
330
900B
100
AcDbEntity
  8
Dimension
 62
     0
370
     0
100
AcDbTrace
 10
106.5884943791516
 20
106.5249868502302
 30
0.0
 11
106.5884943791516
 21
106.0249868502302
 31
0.0
 12
108.0884943791516
 22
106.2749868502302
 32
0.0
 13
108.0884943791516
 23
106.2749868502302
 33
0.0
  0
SOLID
  5
914F
330
900B
100
AcDbEntity
  8
Dimension
 62
     0
370
     0
100
AcDbTrace
 10
102.2085051278487
 20
106.5249868502302
 30
0.0
 11
102.2085051278487
 21
106.0249868502302
 31
0.0
 12
100.7085051278487
 22
106.2749868502302
 32
0.0
 13
100.7085051278487
 23
106.2749868502302
 33
0.0
  0
MTEXT
  5
9150
330
900B
100
AcDbEntity
  8
Dimension
 62
     0
370
     0
100
AcDbMText
 10
104.3984997535001
 20
107.5342979007077
 30
0.0
 40
1.5
 41
0.0
 71
     5
 72
     1
  1
7.4{\H1.050000;±0.3}
 73
     1
 44
1.0
1001
ACAD
1000
MTEXTBEGIN
1070
    73
1070
     1
1070
    44
1040
1.0
1070
    74
1070
     0
1000
MTEXTEND
  0
POINT
  5
9151
330
900B
100
AcDbEntity
  8
Defpoints
 62
     0
370
     0
100
AcDbPoint
 10
108.0884943791516
 20
122.9855848566862
 30
0.0
  0
POINT
  5
9152
330
900B
100
AcDbEntity
  8
Defpoints
 62
     0
370
     0
100
AcDbPoint
 10
100.7085051278487
 20
129.822206027999
 30
0.0
  0
POINT
  5
9153
330
900B
100
AcDbEntity
  8
Defpoints
 62
     0
370
     0
100
AcDbPoint
 10
100.7085051278487
 20
106.2749868502302
 30
0.0
  0
ENDBLK
  5
9017
330
900B
100
AcDbEntity
  8
0
370
     0
100
AcDbBlockEnd
  0
BLOCK
  5
9023
330
9018
100
AcDbEntity
  8
0
370
     0
100
AcDbBlockBegin
  2
*D14
 70
     1
 10
0.0
 20
0.0
 30
0.0
  3
*D14
  1

  0
LINE
  5
9183
330
9018
100
AcDbEntity
  8
Dimension
 62
     0
370
    -2
100
AcDbLine
 10
126.9884943792829
 20
121.9855848566862
 30
0.0
 11
126.9884943792829
 21
105.7749868502302
 31
0.0
  0
LINE
  5
9184
330
9018
100
AcDbEntity
  8
Dimension
 62
     0
370
    -2
100
AcDbLine
 10
134.3984836305665
 20
128.822206027999
 30
0.0
 11
134.3984836305665
 21
105.7749868502302
 31
0.0
  0
LINE
  5
9185
330
9018
100
AcDbEntity
  8
Dimension
 62
     0
370
    -2
100
AcDbLine
 10
128.4884943792829
 20
106.2749868502302
 30
0.0
 11
132.8984836305665
 21
106.2749868502302
 31
0.0
  0
SOLID
  5
9186
330
9018
100
AcDbEntity
  8
Dimension
 62
     0
370
     0
100
AcDbTrace
 10
128.4884943792829
 20
106.5249868502302
 30
0.0
 11
128.4884943792829
 21
106.0249868502302
 31
0.0
 12
126.9884943792829
 22
106.2749868502302
 32
0.0
 13
126.9884943792829
 23
106.2749868502302
 33
0.0
  0
SOLID
  5
9187
330
9018
100
AcDbEntity
  8
Dimension
 62
     0
370
     0
100
AcDbTrace
 10
132.8984836305665
 20
106.5249868502302
 30
0.0
 11
132.8984836305665
 21
106.0249868502302
 31
0.0
 12
134.3984836305665
 22
106.2749868502302
 32
0.0
 13
134.3984836305665
 23
106.2749868502302
 33
0.0
  0
MTEXT
  5
9188
330
9018
100
AcDbEntity
  8
Dimension
 62
     0
370
     0
100
AcDbMText
 10
130.6934890049247
 20
107.5342979007077
 30
0.0
 40
1.5
 41
0.0
 71
     5
 72
     1
  1
7.4{\H1.050000;±0.3}
 73
     1
 44
1.0
1001
ACAD
1000
MTEXTBEGIN
1070
    73
1070
     1
1070
    44
1040
1.0
1070
    74
1070
     0
1000
MTEXTEND
  0
POINT
  5
9189
330
9018
100
AcDbEntity
  8
Defpoints
 62
     0
370
     0
100
AcDbPoint
 10
126.9884943792829
 20
122.9855848566862
 30
0.0
  0
POINT
  5
918A
330
9018
100
AcDbEntity
  8
Defpoints
 62
     0
370
     0
100
AcDbPoint
 10
134.3984836305665
 20
129.822206027999
 30
0.0
  0
POINT
  5
918B
330
9018
100
AcDbEntity
  8
Defpoints
 62
     0
370
     0
100
AcDbPoint
 10
134.3984836305665
 20
106.2749868502302
 30
0.0
  0
ENDBLK
  5
9024
330
9018
100
AcDbEntity
  8
0
370
     0
100
AcDbBlockEnd
  0
BLOCK
  5
9030
330
9025
100
AcDbEntity
  8
0
370
     0
100
AcDbBlockBegin
  2
*D15
 70
     1
 10
0.0
 20
0.0
 30
0.0
  3
*D15
  1

  0
LINE
  5
91C8
330
9025
100
AcDbEntity
  8
Dimension
 62
     0
370
    -2
100
AcDbLine
 10
126.9884943792829
 20
121.9855848566862
 30
0.0
 11
126.9884943792829
 21
116.4475976176496
 31
0.0
  0
LINE
  5
91C9
330
9025
100
AcDbEntity
  8
Dimension
 62
     0
370
    -2
100
AcDbLine
 10
128.7884943792954
 20
127.5605848563956
 30
0.0
 11
128.7884943792954
 21
116.4475976176496
 31
0.0
  0
LINE
  5
91CA
330
9025
100
AcDbEntity
  8
Dimension
 62
     0
370
    -2
100
AcDbLine
 10
130.2884943792953
 20
116.9475976176496
 30
0.0
 11
131.7884943792954
 21
116.9475976176496
 31
0.0
  0
LINE
  5
91CB
330
9025
100
AcDbEntity
  8
Dimension
 62
     0
370
    -2
100
AcDbLine
 10
125.4884943792829
 20
116.9475976176496
 30
0.0
 11
120.395724938628
 21
116.9475976176496
 31
0.0
  0
SOLID
  5
91CC
330
9025
100
AcDbEntity
  8
Dimension
 62
     0
370
     0
100
AcDbTrace
 10
130.2884943792953
 20
117.1975976176496
 30
0.0
 11
130.2884943792953
 21
116.6975976176495
 31
0.0
 12
128.7884943792954
 22
116.9475976176496
 32
0.0
 13
128.7884943792954
 23
116.9475976176496
 33
0.0
  0
SOLID
  5
91CD
330
9025
100
AcDbEntity
  8
Dimension
 62
     0
370
     0
100
AcDbTrace
 10
125.4884943792829
 20
117.1975976176496
 30
0.0
 11
125.4884943792829
 21
116.6975976176495
 31
0.0
 12
126.9884943792829
 22
116.9475976176496
 32
0.0
 13
126.9884943792829
 23
116.9475976176496
 33
0.0
  0
MTEXT
  5
91CE
330
9025
100
AcDbEntity
  8
Dimension
 62
     0
370
     0
100
AcDbMText
 10
122.1921096589555
 20
118.2134570992321
 30
0.0
 40
1.5
 41
0.0
 71
     5
 72
     1
  1
1.8
 73
     1
 44
1.0
1001
ACAD
1000
MTEXTBEGIN
1070
    73
1070
     1
1070
    44
1040
1.0
1070
    74
1070
     0
1000
MTEXTEND
  0
POINT
  5
91CF
330
9025
100
AcDbEntity
  8
Defpoints
 62
     0
370
     0
100
AcDbPoint
 10
126.9884943792829
 20
122.9855848566862
 30
0.0
  0
POINT
  5
91D0
330
9025
100
AcDbEntity
  8
Defpoints
 62
     0
370
     0
100
AcDbPoint
 10
128.7884943792954
 20
128.5605848563956
 30
0.0
  0
POINT
  5
91D1
330
9025
100
AcDbEntity
  8
Defpoints
 62
     0
370
     0
100
AcDbPoint
 10
128.7884943792954
 20
116.9475976176496
 30
0.0
  0
ENDBLK
  5
9031
330
9025
100
AcDbEntity
  8
0
370
     0
100
AcDbBlockEnd
  0
BLOCK
  5
903D
330
9032
100
AcDbEntity
  8
0
370
     0
100
AcDbBlockBegin
  2
*D16
 70
     1
 10
0.0
 20
0.0
 30
0.0
  3
*D16
  1

  0
LINE
  5
90FD
330
9032
100
AcDbEntity
  8
Dimension
 62
     0
370
    -2
100
AcDbLine
 10
127.9884943791016
 20
126.6856337970625
 30
0.0
 11
127.9884943791016
 21
111.6645695215353
 31
0.0
  0
LINE
  5
90FE
330
9032
100
AcDbEntity
  8
Dimension
 62
     0
370
    -2
100
AcDbLine
 10
126.9884943792829
 20
121.9855848566862
 30
0.0
 11
126.9884943792829
 21
111.6645695215353
 31
0.0
  0
LINE
  5
90FF
330
9032
100
AcDbEntity
  8
Dimension
 62
     0
370
    -2
100
AcDbLine
 10
129.4884943791016
 20
112.1645695215353
 30
0.0
 11
130.9884943791016
 21
112.1645695215353
 31
0.0
  0
LINE
  5
9100
330
9032
100
AcDbEntity
  8
Dimension
 62
     0
370
    -2
100
AcDbLine
 10
125.4884943792829
 20
112.1645695215353
 30
0.0
 11
122.4359705047945
 21
112.1645695215353
 31
0.0
  0
SOLID
  5
9101
330
9032
100
AcDbEntity
  8
Dimension
 62
     0
370
     0
100
AcDbTrace
 10
129.4884943791016
 20
112.4145695215353
 30
0.0
 11
129.4884943791016
 21
111.9145695215354
 31
0.0
 12
127.9884943791016
 22
112.1645695215353
 32
0.0
 13
127.9884943791016
 23
112.1645695215353
 33
0.0
  0
SOLID
  5
9102
330
9032
100
AcDbEntity
  8
Dimension
 62
     0
370
     0
100
AcDbTrace
 10
125.4884943792829
 20
112.4145695215353
 30
0.0
 11
125.4884943792829
 21
111.9145695215354
 31
0.0
 12
126.9884943792829
 22
112.1645695215353
 32
0.0
 13
126.9884943792829
 23
112.1645695215353
 33
0.0
  0
MTEXT
  5
9103
330
9032
100
AcDbEntity
  8
Dimension
 62
     0
370
     0
100
AcDbMText
 10
123.2122324420387
 20
113.4176390986158
 30
0.0
 40
1.5
 41
0.0
 71
     5
 72
     1
  1
1
 73
     1
 44
1.0
1001
ACAD
1000
MTEXTBEGIN
1070
    73
1070
     1
1070
    44
1040
1.0
1070
    74
1070
     0
1000
MTEXTEND
  0
POINT
  5
9104
330
9032
100
AcDbEntity
  8
Defpoints
 62
     0
370
     0
100
AcDbPoint
 10
127.9884943791016
 20
127.6856337970625
 30
0.0
  0
POINT
  5
9105
330
9032
100
AcDbEntity
  8
Defpoints
 62
     0
370
     0
100
AcDbPoint
 10
126.9884943792829
 20
122.9855848566862
 30
0.0
  0
POINT
  5
9106
330
9032
100
AcDbEntity
  8
Defpoints
 62
     0
370
     0
100
AcDbPoint
 10
126.9884943792829
 20
112.1645695215353
 30
0.0
  0
ENDBLK
  5
903E
330
9032
100
AcDbEntity
  8
0
370
     0
100
AcDbBlockEnd
  0
BLOCK
  5
904A
330
903F
100
AcDbEntity
  8
0
370
     0
100
AcDbBlockBegin
  2
*D17
 70
     1
 10
0.0
 20
0.0
 30
0.0
  3
*D17
  1

  0
LINE
  5
9266
330
903F
100
AcDbEntity
  8
Dimension
 62
     0
370
    -2
100
AcDbLine
 10
135.248494379281
 20
129.735584856733
 30
0.0
 11
140.8184011576455
 21
129.735584856733
 31
0.0
  0
LINE
  5
9267
330
903F
100
AcDbEntity
  8
Dimension
 62
     0
370
    -2
100
AcDbLine
 10
135.248482227921
 20
131.2355637939345
 30
0.0
 11
140.8184011576455
 21
131.2355637939345
 31
0.0
  0
LINE
  5
9268
330
903F
100
AcDbEntity
  8
Dimension
 62
     0
370
    -2
100
AcDbLine
 10
140.3184011576455
 20
128.235584856733
 30
0.0
 11
140.3184011576455
 21
126.735584856733
 31
0.0
  0
LINE
  5
9269
330
903F
100
AcDbEntity
  8
Dimension
 62
     0
370
    -2
100
AcDbLine
 10
140.3184011576455
 20
132.7355637939346
 30
0.0
 11
140.3184011576455
 21
150.1017178452723
 31
0.0
  0
SOLID
  5
926A
330
903F
100
AcDbEntity
  8
Dimension
 62
     0
370
     0
100
AcDbTrace
 10
140.0684011576455
 20
128.235584856733
 30
0.0
 11
140.5684011576455
 21
128.235584856733
 31
0.0
 12
140.3184011576455
 22
129.735584856733
 32
0.0
 13
140.3184011576455
 23
129.735584856733
 33
0.0
  0
SOLID
  5
926B
330
903F
100
AcDbEntity
  8
Dimension
 62
     0
370
     0
100
AcDbTrace
 10
140.0684011576455
 20
132.7355637939346
 30
0.0
 11
140.5684011576455
 21
132.7355637939346
 31
0.0
 12
140.3184011576455
 22
131.2355637939345
 32
0.0
 13
140.3184011576455
 23
131.2355637939345
 33
0.0
  0
MTEXT
  5
926C
330
903F
100
AcDbEntity
  8
Dimension
 62
     0
370
     0
100
AcDbMText
 10
138.5410137088051
 20
145.0575159353132
 30
0.0
 40
1.5
 41
0.0
 71
     5
 72
     1
  1
Ø 1.5{\H1.050000;\S-0.006^ -0.009;}
 11
0.0000000000000001
 21
1.0
 31
0.0
 73
     1
 44
1.0
1001
ACAD
1000
MTEXTBEGIN
1070
    73
1070
     1
1070
    44
1040
1.0
1070
    74
1070
     0
1000
MTEXTEND
  0
POINT
  5
926D
330
903F
100
AcDbEntity
  8
Defpoints
 62
     0
370
     0
100
AcDbPoint
 10
134.248494379281
 20
129.735584856733
 30
0.0
  0
POINT
  5
926E
330
903F
100
AcDbEntity
  8
Defpoints
 62
     0
370
     0
100
AcDbPoint
 10
134.248482227921
 20
131.2355637939345
 30
0.0
  0
POINT
  5
926F
330
903F
100
AcDbEntity
  8
Defpoints
 62
     0
370
     0
100
AcDbPoint
 10
140.3184011576455
 20
131.2355637939345
 30
0.0
  0
ENDBLK
  5
904B
330
903F
100
AcDbEntity
  8
0
370
     0
100
AcDbBlockEnd
  0
BLOCK
  5
9057
330
904C
100
AcDbEntity
  8
0
370
     0
100
AcDbBlockBegin
  2
*D18
 70
     1
 10
0.0
 20
0.0
 30
0.0
  3
*D18
  1

  0
LINE
  5
9111
330
904C
100
AcDbEntity
  8
Dimension
 62
     0
370
    -2
100
AcDbLine
 10
128.7884943794766
 20
127.4855848567174
 30
0.0
 11
146.7674480062904
 21
127.4855848567174
 31
0.0
  0
LINE
  5
9112
330
904C
100
AcDbEntity
  8
Dimension
 62
     0
370
    -2
100
AcDbLine
 10
128.7884943794766
 20
133.4855848564768
 30
0.0
 11
146.7674480062904
 21
133.4855848564768
 31
0.0
  0
LINE
  5
9113
330
904C
100
AcDbEntity
  8
Dimension
 62
     0
370
    -2
100
AcDbLine
 10
146.2674480062904
 20
128.9855848567174
 30
0.0
 11
146.2674480062904
 21
131.9855848564768
 31
0.0
  0
LINE
  5
9114
330
904C
100
AcDbEntity
  8
Dimension
 62
     0
370
    -2
100
AcDbLine
 10
146.2674480062904
 20
133.4855848564768
 30
0.0
 11
146.2674480062904
 21
149.3897433680338
 31
0.0
  0
SOLID
  5
9115
330
904C
100
AcDbEntity
  8
Dimension
 62
     0
370
     0
100
AcDbTrace
 10
146.0174480062904
 20
128.9855848567174
 30
0.0
 11
146.5174480062904
 21
128.9855848567174
 31
0.0
 12
146.2674480062904
 22
127.4855848567174
 32
0.0
 13
146.2674480062904
 23
127.4855848567174
 33
0.0
  0
SOLID
  5
9116
330
904C
100
AcDbEntity
  8
Dimension
 62
     0
370
     0
100
AcDbTrace
 10
146.0174480062904
 20
131.9855848564768
 30
0.0
 11
146.5174480062904
 21
131.9855848564768
 31
0.0
 12
146.2674480062904
 22
133.4855848564768
 32
0.0
 13
146.2674480062904
 23
133.4855848564768
 33
0.0
  0
MTEXT
  5
9117
330
904C
100
AcDbEntity
  8
Dimension
 62
     0
370
     0
100
AcDbMText
 10
144.49006055745
 20
145.2193477336545
 30
0.0
 40
1.5
 41
0.0
 71
     5
 72
     1
  1
Ø 6{\H1.050000;\S+0^ -0.018;}
 11
0.0000000000000001
 21
1.0
 31
0.0
 73
     1
 44
1.0
1001
ACAD
1000
MTEXTBEGIN
1070
    73
1070
     1
1070
    44
1040
1.0
1070
    74
1070
     0
1000
MTEXTEND
  0
POINT
  5
9118
330
904C
100
AcDbEntity
  8
Defpoints
 62
     0
370
     0
100
AcDbPoint
 10
127.7884943794766
 20
127.4855848567174
 30
0.0
  0
POINT
  5
9119
330
904C
100
AcDbEntity
  8
Defpoints
 62
     0
370
     0
100
AcDbPoint
 10
127.7884943794766
 20
133.4855848564768
 30
0.0
  0
POINT
  5
911A
330
904C
100
AcDbEntity
  8
Defpoints
 62
     0
370
     0
100
AcDbPoint
 10
146.2674480062904
 20
133.4855848564768
 30
0.0
  0
ENDBLK
  5
9058
330
904C
100
AcDbEntity
  8
0
370
     0
100
AcDbBlockEnd
  0
BLOCK
  5
9064
330
9059
100
AcDbEntity
  8
0
370
     0
100
AcDbBlockBegin
  2
*D19
 70
     1
 10
0.0
 20
0.0
 30
0.0
  3
*D19
  1

  0
LINE
  5
9248
330
9059
100
AcDbEntity
  8
Dimension
 62
     0
370
    -2
100
AcDbLine
 10
99.85849437913417
 20
129.735584856733
 30
0.0
 11
95.83425058607629
 21
129.735584856733
 31
0.0
  0
LINE
  5
9249
330
9059
100
AcDbEntity
  8
Dimension
 62
     0
370
    -2
100
AcDbLine
 10
99.85849437913417
 20
131.2355848564612
 30
0.0
 11
95.83425058607629
 21
131.2355848564612
 31
0.0
  0
LINE
  5
924A
330
9059
100
AcDbEntity
  8
Dimension
 62
     0
370
    -2
100
AcDbLine
 10
96.33425058607627
 20
128.235584856733
 30
0.0
 11
96.33425058607627
 21
126.735584856733
 31
0.0
  0
LINE
  5
924B
330
9059
100
AcDbEntity
  8
Dimension
 62
     0
370
    -2
100
AcDbLine
 10
96.33425058607627
 20
132.7355848564612
 30
0.0
 11
96.33425058607627
 21
148.6829574950803
 31
0.0
  0
SOLID
  5
924C
330
9059
100
AcDbEntity
  8
Dimension
 62
     0
370
     0
100
AcDbTrace
 10
96.08425058607629
 20
128.235584856733
 30
0.0
 11
96.58425058607628
 21
128.235584856733
 31
0.0
 12
96.33425058607627
 22
129.735584856733
 32
0.0
 13
96.33425058607627
 23
129.735584856733
 33
0.0
  0
SOLID
  5
924D
330
9059
100
AcDbEntity
  8
Dimension
 62
     0
370
     0
100
AcDbTrace
 10
96.08425058607629
 20
132.7355848564612
 30
0.0
 11
96.58425058607628
 21
132.7355848564612
 31
0.0
 12
96.33425058607627
 22
131.2355848564612
 32
0.0
 13
96.33425058607627
 23
131.2355848564612
 33
0.0
  0
MTEXT
  5
924E
330
9059
100
AcDbEntity
  8
Dimension
 62
     0
370
     0
100
AcDbMText
 10
94.55686313723587
 20
143.6387555851213
 30
0.0
 40
1.5
 41
0.0
 71
     5
 72
     1
  1
Ø 1.5{\H1.050000;\S-0.006^ -0.009;}
 11
0.0000000000000001
 21
1.0
 31
0.0
 73
     1
 44
1.0
1001
ACAD
1000
MTEXTBEGIN
1070
    73
1070
     1
1070
    44
1040
1.0
1070
    74
1070
     0
1000
MTEXTEND
  0
POINT
  5
924F
330
9059
100
AcDbEntity
  8
Defpoints
 62
     0
370
     0
100
AcDbPoint
 10
100.8584943791341
 20
129.735584856733
 30
0.0
  0
POINT
  5
9250
330
9059
100
AcDbEntity
  8
Defpoints
 62
     0
370
     0
100
AcDbPoint
 10
100.8584943791341
 20
131.2355848564612
 30
0.0
  0
POINT
  5
9251
330
9059
100
AcDbEntity
  8
Defpoints
 62
     0
370
     0
100
AcDbPoint
 10
96.33425058607627
 20
131.2355848564612
 30
0.0
  0
ENDBLK
  5
9065
330
9059
100
AcDbEntity
  8
0
370
     0
100
AcDbBlockEnd
  0
BLOCK
  5
9071
330
9066
100
AcDbEntity
  8
0
370
     0
100
AcDbBlockBegin
  2
*D20
 70
     1
 10
0.0
 20
0.0
 30
0.0
  3
*D20
  1

  0
LINE
  5
9125
330
9066
100
AcDbEntity
  8
Dimension
 62
     0
370
    -2
100
AcDbLine
 10
106.2884943789579
 20
127.4855848567174
 30
0.0
 11
90.93999659141768
 21
127.4855848567174
 31
0.0
  0
LINE
  5
9126
330
9066
100
AcDbEntity
  8
Dimension
 62
     0
370
    -2
100
AcDbLine
 10
106.2884943789579
 20
133.4855848564768
 30
0.0
 11
90.93999659141768
 21
133.4855848564768
 31
0.0
  0
LINE
  5
9127
330
9066
100
AcDbEntity
  8
Dimension
 62
     0
370
    -2
100
AcDbLine
 10
91.43999659141767
 20
128.9855848567174
 30
0.0
 11
91.43999659141767
 21
131.9855848564768
 31
0.0
  0
LINE
  5
9128
330
9066
100
AcDbEntity
  8
Dimension
 62
     0
370
    -2
100
AcDbLine
 10
91.43999659141767
 20
133.4855848564768
 30
0.0
 11
91.43999659141767
 21
149.1690553667116
 31
0.0
  0
SOLID
  5
9129
330
9066
100
AcDbEntity
  8
Dimension
 62
     0
370
     0
100
AcDbTrace
 10
91.18999659141769
 20
128.9855848567174
 30
0.0
 11
91.68999659141768
 21
128.9855848567174
 31
0.0
 12
91.43999659141767
 22
127.4855848567174
 32
0.0
 13
91.43999659141767
 23
127.4855848567174
 33
0.0
  0
SOLID
  5
912A
330
9066
100
AcDbEntity
  8
Dimension
 62
     0
370
     0
100
AcDbTrace
 10
91.18999659141769
 20
131.9855848564768
 30
0.0
 11
91.68999659141768
 21
131.9855848564768
 31
0.0
 12
91.43999659141767
 22
133.4855848564768
 32
0.0
 13
91.43999659141767
 23
133.4855848564768
 33
0.0
  0
MTEXT
  5
912B
330
9066
100
AcDbEntity
  8
Dimension
 62
     0
370
     0
100
AcDbMText
 10
89.66260914257729
 20
144.9986597323324
 30
0.0
 40
1.5
 41
0.0
 71
     5
 72
     1
  1
Ø 6{\H1.050000;\S+0^ -0.018;}
 11
0.0000000000000001
 21
1.0
 31
0.0
 73
     1
 44
1.0
1001
ACAD
1000
MTEXTBEGIN
1070
    73
1070
     1
1070
    44
1040
1.0
1070
    74
1070
     0
1000
MTEXTEND
  0
POINT
  5
912C
330
9066
100
AcDbEntity
  8
Defpoints
 62
     0
370
     0
100
AcDbPoint
 10
107.2884943789579
 20
127.4855848567174
 30
0.0
  0
POINT
  5
912D
330
9066
100
AcDbEntity
  8
Defpoints
 62
     0
370
     0
100
AcDbPoint
 10
107.2884943789579
 20
133.4855848564768
 30
0.0
  0
POINT
  5
912E
330
9066
100
AcDbEntity
  8
Defpoints
 62
     0
370
     0
100
AcDbPoint
 10
91.43999659141767
 20
133.4855848564768
 30
0.0
  0
ENDBLK
  5
9072
330
9066
100
AcDbEntity
  8
0
370
     0
100
AcDbBlockEnd
  0
BLOCK
  5
91DE
330
91D3
100
AcDbEntity
  8
0
370
     0
100
AcDbBlockBegin
  2
*D21
 70
     1
 10
0.0
 20
0.0
 30
0.0
  3
*D21
  1

  0
LINE
  5
9202
330
91D3
100
AcDbEntity
  8
Dimension
 62
     0
370
    -2
100
AcDbLine
 10
106.2884943791391
 20
127.5605848563956
 30
0.0
 11
106.2884943791391
 21
116.4475976176496
 31
0.0
  0
LINE
  5
9203
330
91D3
100
AcDbEntity
  8
Dimension
 62
     0
370
    -2
100
AcDbLine
 10
108.0884943791516
 20
121.9855848566862
 30
0.0
 11
108.0884943791516
 21
116.4475976176496
 31
0.0
  0
LINE
  5
9204
330
91D3
100
AcDbEntity
  8
Dimension
 62
     0
370
    -2
100
AcDbLine
 10
104.7884943791391
 20
116.9475976176496
 30
0.0
 11
103.2884943791391
 21
116.9475976176496
 31
0.0
  0
LINE
  5
9205
330
91D3
100
AcDbEntity
  8
Dimension
 62
     0
370
    -2
100
AcDbLine
 10
109.5884943791516
 20
116.9475976176496
 30
0.0
 11
114.6812638198065
 21
116.9475976176496
 31
0.0
  0
SOLID
  5
9206
330
91D3
100
AcDbEntity
  8
Dimension
 62
     0
370
     0
100
AcDbTrace
 10
104.7884943791391
 20
117.1975976176496
 30
0.0
 11
104.7884943791391
 21
116.6975976176495
 31
0.0
 12
106.2884943791391
 22
116.9475976176496
 32
0.0
 13
106.2884943791391
 23
116.9475976176496
 33
0.0
  0
SOLID
  5
9207
330
91D3
100
AcDbEntity
  8
Dimension
 62
     0
370
     0
100
AcDbTrace
 10
109.5884943791516
 20
117.1975976176496
 30
0.0
 11
109.5884943791516
 21
116.6975976176495
 31
0.0
 12
108.0884943791516
 22
116.9475976176496
 32
0.0
 13
108.0884943791516
 23
116.9475976176496
 33
0.0
  0
MTEXT
  5
9208
330
91D3
100
AcDbEntity
  8
Dimension
 62
     0
370
     0
100
AcDbMText
 10
112.884879099479
 20
118.2134570992321
 30
0.0
 40
1.5
 41
0.0
 71
     5
 72
     1
  1
1.8
 73
     1
 44
1.0
1001
ACAD
1000
MTEXTBEGIN
1070
    73
1070
     1
1070
    44
1040
1.0
1070
    74
1070
     0
1000
MTEXTEND
  0
POINT
  5
9209
330
91D3
100
AcDbEntity
  8
Defpoints
 62
     0
370
     0
100
AcDbPoint
 10
106.2884943791391
 20
128.5605848563956
 30
0.0
  0
POINT
  5
920A
330
91D3
100
AcDbEntity
  8
Defpoints
 62
     0
370
     0
100
AcDbPoint
 10
108.0884943791516
 20
122.9855848566862
 30
0.0
  0
POINT
  5
920B
330
91D3
100
AcDbEntity
  8
Defpoints
 62
     0
370
     0
100
AcDbPoint
 10
108.0884943791516
 20
116.9475976176496
 30
0.0
  0
ENDBLK
  5
91DF
330
91D3
100
AcDbEntity
  8
0
370
     0
100
AcDbBlockEnd
  0
BLOCK
  5
91EC
330
91E1
100
AcDbEntity
  8
0
370
     0
100
AcDbBlockBegin
  2
*D22
 70
     1
 10
0.0
 20
0.0
 30
0.0
  3
*D22
  1

  0
LINE
  5
91EE
330
91E1
100
AcDbEntity
  8
Dimension
 62
     0
370
    -2
100
AcDbLine
 10
107.0884943793329
 20
126.6856337970625
 30
0.0
 11
107.0884943793329
 21
111.6645695215353
 31
0.0
  0
LINE
  5
91EF
330
91E1
100
AcDbEntity
  8
Dimension
 62
     0
370
    -2
100
AcDbLine
 10
108.0884943791516
 20
121.9855848566862
 30
0.0
 11
108.0884943791516
 21
111.6645695215353
 31
0.0
  0
LINE
  5
91F0
330
91E1
100
AcDbEntity
  8
Dimension
 62
     0
370
    -2
100
AcDbLine
 10
105.5884943793329
 20
112.1645695215353
 30
0.0
 11
104.0884943793329
 21
112.1645695215353
 31
0.0
  0
LINE
  5
91F1
330
91E1
100
AcDbEntity
  8
Dimension
 62
     0
370
    -2
100
AcDbLine
 10
109.5884943791516
 20
112.1645695215353
 30
0.0
 11
112.64101825364
 21
112.1645695215353
 31
0.0
  0
SOLID
  5
91F2
330
91E1
100
AcDbEntity
  8
Dimension
 62
     0
370
     0
100
AcDbTrace
 10
105.5884943793329
 20
112.4145695215353
 30
0.0
 11
105.5884943793329
 21
111.9145695215354
 31
0.0
 12
107.0884943793329
 22
112.1645695215353
 32
0.0
 13
107.0884943793329
 23
112.1645695215353
 33
0.0
  0
SOLID
  5
91F3
330
91E1
100
AcDbEntity
  8
Dimension
 62
     0
370
     0
100
AcDbTrace
 10
109.5884943791516
 20
112.4145695215353
 30
0.0
 11
109.5884943791516
 21
111.9145695215354
 31
0.0
 12
108.0884943791516
 22
112.1645695215353
 32
0.0
 13
108.0884943791516
 23
112.1645695215353
 33
0.0
  0
MTEXT
  5
91F4
330
91E1
100
AcDbEntity
  8
Dimension
 62
     0
370
     0
100
AcDbMText
 10
111.8647563163958
 20
113.4176390986158
 30
0.0
 40
1.5
 41
0.0
 71
     5
 72
     1
  1
1
 73
     1
 44
1.0
1001
ACAD
1000
MTEXTBEGIN
1070
    73
1070
     1
1070
    44
1040
1.0
1070
    74
1070
     0
1000
MTEXTEND
  0
POINT
  5
91F5
330
91E1
100
AcDbEntity
  8
Defpoints
 62
     0
370
     0
100
AcDbPoint
 10
107.0884943793329
 20
127.6856337970625
 30
0.0
  0
POINT
  5
91F6
330
91E1
100
AcDbEntity
  8
Defpoints
 62
     0
370
     0
100
AcDbPoint
 10
108.0884943791516
 20
122.9855848566862
 30
0.0
  0
POINT
  5
91F7
330
91E1
100
AcDbEntity
  8
Defpoints
 62
     0
370
     0
100
AcDbPoint
 10
108.0884943791516
 20
112.1645695215353
 30
0.0
  0
ENDBLK
  5
91ED
330
91E1
100
AcDbEntity
  8
0
370
     0
100
AcDbBlockEnd
  0
BLOCK
  5
92CA
330
92BF
100
AcDbEntity
  8
0
370
     0
100
AcDbBlockBegin
  2
*D23
 70
     1
 10
0.0
 20
0.0
 30
0.0
  3
*D23
  1

  0
LINE
  5
9332
330
92BF
100
AcDbEntity
  8
Dimension
 62
     0
370
    -2
100
AcDbLine
 10
166.3459210923065
 20
126.5316394748049
 30
0.0
 11
159.9895916735736
 21
126.5316394748049
 31
0.0
  0
LINE
  5
9333
330
92BF
100
AcDbEntity
  8
Dimension
 62
     0
370
    -2
100
AcDbLine
 10
166.3459210923065
 20
134.5052560573221
 30
0.0
 11
159.9895916735736
 21
134.5052560573221
 31
0.0
  0
LINE
  5
9334
330
92BF
100
AcDbEntity
  8
Dimension
 62
     0
370
    -2
100
AcDbLine
 10
160.4895916735737
 20
128.0316394748049
 30
0.0
 11
160.4895916735737
 21
133.0052560573221
 31
0.0
  0
SOLID
  5
9335
330
92BF
100
AcDbEntity
  8
Dimension
 62
     0
370
     0
100
AcDbTrace
 10
160.2395916735736
 20
128.0316394748049
 30
0.0
 11
160.7395916735737
 21
128.0316394748049
 31
0.0
 12
160.4895916735737
 22
126.5316394748049
 32
0.0
 13
160.4895916735737
 23
126.5316394748049
 33
0.0
  0
SOLID
  5
9336
330
92BF
100
AcDbEntity
  8
Dimension
 62
     0
370
     0
100
AcDbTrace
 10
160.2395916735736
 20
133.0052560573221
 30
0.0
 11
160.7395916735737
 21
133.0052560573221
 31
0.0
 12
160.4895916735737
 22
134.5052560573221
 32
0.0
 13
160.4895916735737
 23
134.5052560573221
 33
0.0
  0
MTEXT
  5
9337
330
92BF
100
AcDbEntity
  8
Dimension
 62
     0
370
     0
100
AcDbMText
 10
159.2268017690716
 20
130.5184477660635
 30
0.0
 40
1.5
 41
0.0
 71
     5
 72
     1
  1
7.5
 11
0.0000000000000001
 21
1.0
 31
0.0
 73
     1
 44
1.0
1001
ACAD
1000
MTEXTBEGIN
1070
    73
1070
     1
1070
    44
1040
1.0
1070
    74
1070
     0
1000
MTEXTEND
  0
POINT
  5
9338
330
92BF
100
AcDbEntity
  8
Defpoints
 62
     0
370
     0
100
AcDbPoint
 10
167.3459210923065
 20
126.5316394748049
 30
0.0
  0
POINT
  5
9339
330
92BF
100
AcDbEntity
  8
Defpoints
 62
     0
370
     0
100
AcDbPoint
 10
167.3459210923065
 20
134.5052560573221
 30
0.0
  0
POINT
  5
933A
330
92BF
100
AcDbEntity
  8
Defpoints
 62
     0
370
     0
100
AcDbPoint
 10
160.4895916735737
 20
134.5052560573221
 30
0.0
  0
ENDBLK
  5
92CB
330
92BF
100
AcDbEntity
  8
0
370
     0
100
AcDbBlockEnd
  0
BLOCK
  5
92E9
330
92DF
100
AcDbEntity
  8
0
370
     0
100
AcDbBlockBegin
  2
*D24
 70
     1
 10
0.0
 20
0.0
 30
0.0
  3
*D24
  1

  0
LINE
  5
933B
330
92DF
100
AcDbEntity
  8
Dimension
 62
     0
370
    -2
100
AcDbLine
 10
178.3600109702091
 20
132.553569914332
 30
0.0
 11
178.3600109702091
 21
145.7177492461767
 31
0.0
  0
LINE
  5
933C
330
92DF
100
AcDbEntity
  8
Dimension
 62
     0
370
    -2
100
AcDbLine
 10
188.3600109700904
 20
132.553569914332
 30
0.0
 11
188.3600109700904
 21
145.7177492461767
 31
0.0
  0
LINE
  5
933D
330
92DF
100
AcDbEntity
  8
Dimension
 62
     0
370
    -2
100
AcDbLine
 10
179.8600109702091
 20
145.2177492461767
 30
0.0
 11
186.8600109700904
 21
145.2177492461767
 31
0.0
  0
SOLID
  5
933E
330
92DF
100
AcDbEntity
  8
Dimension
 62
     0
370
     0
100
AcDbTrace
 10
179.8600109702091
 20
145.4677492461767
 30
0.0
 11
179.8600109702091
 21
144.9677492461767
 31
0.0
 12
178.3600109702091
 22
145.2177492461767
 32
0.0
 13
178.3600109702091
 23
145.2177492461767
 33
0.0
  0
SOLID
  5
933F
330
92DF
100
AcDbEntity
  8
Dimension
 62
     0
370
     0
100
AcDbTrace
 10
186.8600109700904
 20
145.4677492461767
 30
0.0
 11
186.8600109700904
 21
144.9677492461767
 31
0.0
 12
188.3600109700904
 22
145.2177492461767
 32
0.0
 13
188.3600109700904
 23
145.2177492461767
 33
0.0
  0
MTEXT
  5
9340
330
92DF
100
AcDbEntity
  8
Dimension
 62
     0
370
     0
100
AcDbMText
 10
183.3600109701498
 20
146.525559614526
 30
0.0
 40
1.5
 41
0.0
 71
     5
 72
     1
  1
Ø 10
 73
     1
 44
1.0
1001
ACAD
1000
MTEXTBEGIN
1070
    73
1070
     1
1070
    44
1040
1.0
1070
    74
1070
     0
1000
MTEXTEND
  0
POINT
  5
9341
330
92DF
100
AcDbEntity
  8
Defpoints
 62
     0
370
     0
100
AcDbPoint
 10
178.3600109702091
 20
131.553569914332
 30
0.0
  0
POINT
  5
9342
330
92DF
100
AcDbEntity
  8
Defpoints
 62
     0
370
     0
100
AcDbPoint
 10
188.3600109700904
 20
131.553569914332
 30
0.0
  0
POINT
  5
9343
330
92DF
100
AcDbEntity
  8
Defpoints
 62
     0
370
     0
100
AcDbPoint
 10
188.3600109700904
 20
145.2177492461767
 30
0.0
  0
ENDBLK
  5
92EA
330
92DF
100
AcDbEntity
  8
0
370
     0
100
AcDbBlockEnd
  0
BLOCK
  5
9313
330
9308
100
AcDbEntity
  8
0
370
     0
100
AcDbBlockBegin
  2
*D25
 70
     1
 10
0.0
 20
0.0
 30
0.0
  3
*D25
  1

  0
LINE
  5
9344
330
9308
100
AcDbEntity
  8
Dimension
 62
     0
370
    -2
100
AcDbLine
 10
187.2920259119321
 20
129.4855848561738
 30
0.0
 11
187.2920259119321
 21
113.6884163418672
 31
0.0
  0
LINE
  5
9345
330
9308
100
AcDbEntity
  8
Dimension
 62
     0
370
    -2
100
AcDbLine
 10
189.4279960282487
 20
129.4855848561738
 30
0.0
 11
189.4279960282487
 21
113.6884163418672
 31
0.0
  0
LINE
  5
9346
330
9308
100
AcDbEntity
  8
Dimension
 62
     0
370
    -2
100
AcDbLine
 10
185.7920259119321
 20
114.1884163418672
 30
0.0
 11
184.2920259119321
 21
114.1884163418672
 31
0.0
  0
LINE
  5
9347
330
9308
100
AcDbEntity
  8
Dimension
 62
     0
370
    -2
100
AcDbLine
 10
190.9279960282487
 20
114.1884163418672
 30
0.0
 11
202.9457313624915
 21
114.1884163418672
 31
0.0
  0
SOLID
  5
9348
330
9308
100
AcDbEntity
  8
Dimension
 62
     0
370
     0
100
AcDbTrace
 10
185.7920259119321
 20
114.4384163418672
 30
0.0
 11
185.7920259119321
 21
113.9384163418672
 31
0.0
 12
187.2920259119321
 22
114.1884163418672
 32
0.0
 13
187.2920259119321
 23
114.1884163418672
 33
0.0
  0
SOLID
  5
9349
330
9308
100
AcDbEntity
  8
Dimension
 62
     0
370
     0
100
AcDbTrace
 10
190.9279960282487
 20
114.4384163418672
 30
0.0
 11
190.9279960282487
 21
113.9384163418672
 31
0.0
 12
189.4279960282487
 22
114.1884163418672
 32
0.0
 13
189.4279960282487
 23
114.1884163418672
 33
0.0
  0
MTEXT
  5
934A
330
9308
100
AcDbEntity
  8
Dimension
 62
     0
370
     0
100
AcDbMText
 10
197.6868636953701
 20
115.4542758234497
 30
0.0
 40
1.5
 41
0.0
 71
     5
 72
     1
  1
M1.6 x 1.2
 73
     1
 44
1.0
1001
ACAD
1000
MTEXTBEGIN
1070
    73
1070
     1
1070
    44
1040
1.0
1070
    74
1070
     0
1000
MTEXTEND
  0
POINT
  5
934B
330
9308
100
AcDbEntity
  8
Defpoints
 62
     0
370
     0
100
AcDbPoint
 10
187.2920259119321
 20
130.4855848561738
 30
0.0
  0
POINT
  5
934C
330
9308
100
AcDbEntity
  8
Defpoints
 62
     0
370
     0
100
AcDbPoint
 10
189.4279960282487
 20
130.4855848561738
 30
0.0
  0
POINT
  5
934D
330
9308
100
AcDbEntity
  8
Defpoints
 62
     0
370
     0
100
AcDbPoint
 10
189.4279960282487
 20
114.1884163418672
 30
0.0
  0
ENDBLK
  5
9314
330
9308
100
AcDbEntity
  8
0
370
     0
100
AcDbBlockEnd
  0
ENDSEC
  0
SECTION
  2
ENTITIES
  0
LINE
  5
8AA3
330
1F
100
AcDbEntity
  8
0
  6
Continuous
 62
     7
100
AcDbLine
 10
176.5290345822303
 20
126.3652104367395
 30
0.0
 11
172.7140697983346
 21
126.3652104367395
 31
0.0
  0
LINE
  5
8AA4
330
1F
100
AcDbEntity
  8
0
  6
Continuous
 62
     7
100
AcDbLine
 10
169.3004990018467
 20
126.4697971507721
 30
0.0
 11
167.4696057403721
 21
126.4697971507721
 31
0.0
  0
LINE
  5
8AA5
330
1F
100
AcDbEntity
  8
0
  6
Continuous
 62
     2
100
AcDbLine
 10
167.4696057403721
 20
126.5316394748049
 30
0.0
 11
167.3459210923065
 21
126.5316394748049
 31
0.0
  0
LINE
  5
8AA6
330
1F
100
AcDbEntity
  8
0
  6
Continuous
 62
     7
100
AcDbLine
 10
169.3004990018467
 20
126.5934817988378
 30
0.0
 11
167.4696057403721
 21
126.5934817988378
 31
0.0
  0
LINE
  5
8AA7
330
1F
100
AcDbEntity
  8
0
  6
Continuous
 62
     7
100
AcDbLine
 10
176.3395974079784
 20
126.6980685137169
 30
0.0
 11
172.9573014265009
 21
126.6980685137169
 31
0.0
  0
LINE
  5
8AB2
330
1F
100
AcDbEntity
  8
0
  6
Continuous
 62
     7
100
AcDbLine
 10
176.3395974079784
 20
134.2769846943772
 30
0.0
 11
172.6742840503315
 21
134.2769846943772
 31
0.0
  0
LINE
  5
8AB3
330
1F
100
AcDbEntity
  8
0
  6
Continuous
 62
     7
100
AcDbLine
 10
169.3004990018467
 20
134.3815714092564
 30
0.0
 11
167.4696057403721
 21
134.3815714092564
 31
0.0
  0
LINE
  5
8AB4
330
1F
100
AcDbEntity
  8
0
  6
Continuous
 62
     2
100
AcDbLine
 10
167.4696057403721
 20
134.4434137332893
 30
0.0
 11
167.3459210923065
 21
134.4434137332893
 31
0.0
  0
LINE
  5
8AB5
330
1F
100
AcDbEntity
  8
0
  6
Continuous
 62
     7
100
AcDbLine
 10
169.3004990018467
 20
134.5052560573221
 30
0.0
 11
167.4696057403721
 21
134.5052560573221
 31
0.0
  0
LINE
  5
8AB6
330
1F
100
AcDbEntity
  8
0
  6
Continuous
 62
     7
100
AcDbLine
 10
176.5290345822303
 20
134.6098427722013
 30
0.0
 11
172.9496810882202
 21
134.6098427722013
 31
0.0
  0
LINE
  5
8AB7
330
1F
100
AcDbEntity
  8
0
  6
Continuous
 62
     7
100
AcDbLine
 10
167.4696057403721
 20
134.5052560573221
 30
0.0
 11
167.4696057403721
 21
134.3815714092564
 31
0.0
  0
LINE
  5
8AB8
330
1F
100
AcDbEntity
  8
0
  6
Continuous
 62
     7
100
AcDbLine
 10
167.4696057403721
 20
126.4697971507721
 30
0.0
 11
167.4696057403721
 21
126.5934817988378
 31
0.0
  0
LINE
  5
8ABA
330
1F
100
AcDbEntity
  8
0
  6
Continuous
 62
     7
100
AcDbLine
 10
169.3004990018467
 20
126.6980685137169
 30
0.0
 11
169.3004990018467
 21
126.3652104367395
 31
0.0
  0
LINE
  5
8ABB
330
1F
100
AcDbEntity
  8
0
  6
Continuous
 62
     7
100
AcDbLine
 10
169.3004990018467
 20
134.2769846943772
 30
0.0
 11
169.3004990018467
 21
134.6098427722013
 31
0.0
  0
LINE
  5
8AC4
330
1F
100
AcDbEntity
  8
0
  6
Continuous
 62
     7
100
AcDbLine
 10
35.40901875716074
 20
129.822187397099
 30
0.0
 11
35.40901875716074
 21
131.1489823160952
 31
0.0
  0
LINE
  5
8AC5
330
1F
100
AcDbEntity
  8
0
  6
Continuous
 62
     7
100
AcDbLine
 10
35.55901875687946
 20
129.735584856733
 30
0.0
 11
35.55901875687946
 21
131.2355848564612
 31
0.0
  0
LINE
  5
8AC6
330
1F
100
AcDbEntity
  8
0
  6
Continuous
 62
     7
100
AcDbLine
 10
38.20901875707026
 20
138.4855848564175
 30
0.0
 11
37.70901875716075
 21
137.985584856508
 31
0.0
  0
LINE
  5
8AC7
330
1F
100
AcDbEntity
  8
0
  6
Continuous
 62
     7
100
AcDbLine
 10
38.20901875707026
 20
122.4855848567768
 30
0.0
 11
37.70901875716075
 21
122.9855848566862
 31
0.0
  0
LINE
  5
8AC8
330
1F
100
AcDbEntity
  8
0
  6
Continuous
 62
     7
100
AcDbLine
 10
35.90901875714829
 20
128.5605848563956
 30
0.0
 11
35.90901875714829
 21
132.4105848567987
 31
0.0
  0
LINE
  5
8AC9
330
1F
100
AcDbEntity
  8
0
  6
Continuous
 62
     7
100
AcDbLine
 10
36.70901875734208
 20
127.6856337970625
 30
0.0
 11
36.70901875734208
 21
133.2855359161317
 31
0.0
  0
LINE
  5
8ACA
330
1F
100
AcDbEntity
  8
0
  6
Continuous
 62
     7
100
AcDbLine
 10
36.90901875696707
 20
127.4855848567174
 30
0.0
 11
36.90901875696707
 21
133.4855848564768
 31
0.0
  0
LINE
  5
8ACB
330
1F
100
AcDbEntity
  8
0
  6
Continuous
 62
     7
100
AcDbLine
 10
37.50901875753576
 20
133.4855848564768
 30
0.0
 11
37.50901875753576
 21
127.4855848567174
 31
0.0
  0
LINE
  5
8ACC
330
1F
100
AcDbEntity
  8
0
  6
Continuous
 62
     7
100
AcDbLine
 10
37.70901875716075
 20
122.9856286327395
 30
0.0
 11
37.70901875716075
 21
137.9855410804547
 31
0.0
  0
LINE
  5
8ACD
330
1F
100
AcDbEntity
  8
0
  6
Continuous
 62
     7
100
AcDbLine
 10
38.20901875707026
 20
122.4855848567768
 30
0.0
 11
38.20901875707026
 21
138.4855848564175
 31
0.0
  0
LINE
  5
8ACE
330
1F
100
AcDbEntity
  8
0
  6
Continuous
 62
     7
100
AcDbLine
 10
36.90901875696707
 20
133.4855848564768
 30
0.0
 11
36.70901875734208
 21
133.2855848568517
 31
0.0
  0
LINE
  5
8ACF
330
1F
100
AcDbEntity
  8
0
  6
Continuous
 62
     7
100
AcDbLine
 10
35.40902950559402
 20
131.1489636851952
 30
0.0
 11
35.55903090823958
 21
131.2355637939345
 31
0.0
  0
LINE
  5
8AD0
330
1F
100
AcDbEntity
  8
0
  6
Continuous
 62
     7
100
AcDbLine
 10
35.40902950559402
 20
129.822206027999
 30
0.0
 11
35.55903090823958
 21
129.7356059192596
 31
0.0
  0
LINE
  5
8AD1
330
1F
100
AcDbEntity
  8
0
  6
Continuous
 62
     7
100
AcDbLine
 10
36.90901875696707
 20
127.4855848567174
 30
0.0
 11
36.70901875734208
 21
127.6855848563425
 31
0.0
  0
LINE
  5
8AD3
330
1F
100
AcDbEntity
  8
0
  6
Continuous
 62
     7
100
AcDbLine
 10
47.10901875732012
 20
122.4855848567768
 30
0.0
 11
38.20901875707026
 21
122.4855848567768
 31
0.0
  0
LINE
  5
8AD4
330
1F
100
AcDbEntity
  8
0
  6
Continuous
 62
     7
100
AcDbLine
 10
47.20901875713266
 20
122.4855848567768
 30
0.0
 11
56.10901875738253
 21
122.4855848567768
 31
0.0
  0
LINE
  5
8ADB
330
1F
100
AcDbEntity
  8
0
  6
Continuous
 62
     7
100
AcDbLine
 10
37.50901875753576
 20
127.4855848567174
 30
0.0
 11
36.90901875696707
 21
127.4855848567174
 31
0.0
  0
LINE
  5
8ADC
330
1F
100
AcDbEntity
  8
0
  6
Continuous
 62
     7
100
AcDbLine
 10
56.80901875691714
 20
127.4855848567174
 30
0.0
 11
57.40901875748571
 21
127.4855848567174
 31
0.0
  0
LINE
  5
8ADD
330
1F
100
AcDbEntity
  8
0
  6
Continuous
 62
     7
100
AcDbLine
 10
58.40901875730449
 20
128.5605848563956
 30
0.0
 11
57.6090187571107
 21
128.5605848563956
 31
0.0
  0
LINE
  5
8ADE
330
1F
100
AcDbEntity
  8
0
  6
Continuous
 62
     7
100
AcDbLine
 10
35.90901875714829
 20
128.5605848563956
 30
0.0
 11
36.70901875734208
 21
128.5605848563956
 31
0.0
  0
LINE
  5
8ADF
330
1F
100
AcDbEntity
  8
0
  6
Continuous
 62
     7
100
AcDbLine
 10
47.10901875732012
 20
122.4855848567768
 30
0.0
 11
47.10901875732011
 21
138.4855848564175
 31
0.0
  0
LINE
  5
8AE0
330
1F
100
AcDbEntity
  8
0
  6
Continuous
 62
     7
100
AcDbLine
 10
47.20901875713266
 20
122.4855848567768
 30
0.0
 11
47.20901875713265
 21
138.4855848564175
 31
0.0
  0
LINE
  5
8AE1
330
1F
100
AcDbEntity
  8
0
  6
Continuous
 62
     7
100
AcDbLine
 10
58.95901875729004
 20
129.7355848567331
 30
0.0
 11
58.40901875730449
 21
129.735584856733
 31
0.0
  0
LINE
  5
8AE2
330
1F
100
AcDbEntity
  8
0
  6
Continuous
 62
     7
100
AcDbLine
 10
35.90901875714829
 20
129.735584856733
 30
0.0
 11
35.55903090823958
 21
129.7356059192596
 31
0.0
  0
LINE
  5
8AE4
330
1F
100
AcDbEntity
  8
0
  6
Continuous
 62
     7
100
AcDbLine
 10
58.95901875729009
 20
131.2355848564612
 30
0.0
 11
58.40901875730449
 21
131.2355848564612
 31
0.0
  0
LINE
  5
8AE5
330
1F
100
AcDbEntity
  8
0
  6
Continuous
 62
     7
100
AcDbLine
 10
35.90901875714829
 20
131.2355848564612
 30
0.0
 11
35.55903090823958
 21
131.2355637939345
 31
0.0
  0
LINE
  5
8AE6
330
1F
100
AcDbEntity
  8
0
  6
Continuous
 62
     7
100
AcDbLine
 10
58.40901875730449
 20
132.4105848567987
 30
0.0
 11
57.6090187571107
 21
132.4105848567987
 31
0.0
  0
LINE
  5
8AE7
330
1F
100
AcDbEntity
  8
0
  6
Continuous
 62
     7
100
AcDbLine
 10
35.90901875714829
 20
132.4105848567987
 30
0.0
 11
36.70901875734208
 21
132.4105848567987
 31
0.0
  0
LINE
  5
8AEA
330
1F
100
AcDbEntity
  8
0
  6
Continuous
 62
     7
100
AcDbLine
 10
37.50901875753576
 20
133.4855848564768
 30
0.0
 11
36.90901875696707
 21
133.4855848564768
 31
0.0
  0
LINE
  5
8AEB
330
1F
100
AcDbEntity
  8
0
  6
Continuous
 62
     7
100
AcDbLine
 10
56.80901875691714
 20
133.4855848564768
 30
0.0
 11
57.40901875748571
 21
133.4855848564768
 31
0.0
  0
LINE
  5
8AF0
330
1F
100
AcDbEntity
  8
0
  6
Continuous
 62
     7
100
AcDbLine
 10
56.10901875738253
 20
122.4855848567768
 30
0.0
 11
56.10901875738253
 21
138.4855848564175
 31
0.0
  0
LINE
  5
8AF1
330
1F
100
AcDbEntity
  8
0
  6
Continuous
 62
     7
100
AcDbLine
 10
47.10901875732011
 20
138.4855848564175
 30
0.0
 11
38.20901875707026
 21
138.4855848564175
 31
0.0
  0
LINE
  5
8AF2
330
1F
100
AcDbEntity
  8
0
  6
Continuous
 62
     7
100
AcDbLine
 10
47.20901875713265
 20
138.4855848564175
 30
0.0
 11
56.10901875738253
 21
138.4855848564175
 31
0.0
  0
LINE
  5
8AF4
330
1F
100
AcDbEntity
  8
0
  6
Continuous
 62
     7
100
AcDbLine
 10
56.60901875729203
 20
122.9856286327395
 30
0.0
 11
56.60901875729203
 21
137.9855410804547
 31
0.0
  0
LINE
  5
8AF5
330
1F
100
AcDbEntity
  8
0
  6
Continuous
 62
     7
100
AcDbLine
 10
56.80901875691714
 20
127.4855848567174
 30
0.0
 11
56.80901875691714
 21
133.4855848564768
 31
0.0
  0
LINE
  5
8AF6
330
1F
100
AcDbEntity
  8
0
  6
Continuous
 62
     7
100
AcDbLine
 10
57.40901875748571
 20
127.4855848567174
 30
0.0
 11
57.40901875748571
 21
133.4855848564768
 31
0.0
  0
LINE
  5
8AF7
330
1F
100
AcDbEntity
  8
0
  6
Continuous
 62
     7
100
AcDbLine
 10
57.40901875748571
 20
127.4855848567174
 30
0.0
 11
57.6090187571107
 21
127.6855848563425
 31
0.0
  0
LINE
  5
8AF8
330
1F
100
AcDbEntity
  8
0
  6
Continuous
 62
     7
100
AcDbLine
 10
63.10901875700887
 20
130.0721841553866
 30
0.0
 11
62.95901875729012
 21
129.9855848565971
 31
0.0
  0
LINE
  5
8AF9
330
1F
100
AcDbEntity
  8
0
  6
Continuous
 62
     7
100
AcDbLine
 10
63.10901875700884
 20
130.8989785424792
 30
0.0
 11
62.95900660593011
 21
130.9855848565971
 31
0.0
  0
LINE
  5
8AFA
330
1F
100
AcDbEntity
  8
0
  6
Continuous
 62
     7
100
AcDbLine
 10
57.40901875748571
 20
133.4855848564768
 30
0.0
 11
57.6090187571107
 21
133.2855848568517
 31
0.0
  0
LINE
  5
8AFB
330
1F
100
AcDbEntity
  8
0
  6
Continuous
 62
     7
100
AcDbLine
 10
57.6090187571107
 20
127.6856337970625
 30
0.0
 11
57.6090187571107
 21
133.2855359161317
 31
0.0
  0
LINE
  5
8AFC
330
1F
100
AcDbEntity
  8
0
  6
Continuous
 62
     7
100
AcDbLine
 10
58.40901875730449
 20
128.5605848563956
 30
0.0
 11
58.40901875730449
 21
132.4105848567987
 31
0.0
  0
LINE
  5
8AFD
330
1F
100
AcDbEntity
  8
0
  6
Continuous
 62
     7
100
AcDbLine
 10
56.10901875738253
 20
122.4855848567768
 30
0.0
 11
56.60901875729203
 21
122.9855848566862
 31
0.0
  0
LINE
  5
8AFE
330
1F
100
AcDbEntity
  8
0
  6
Continuous
 62
     7
100
AcDbLine
 10
56.10901875738253
 20
138.4855848564175
 30
0.0
 11
56.60901875729203
 21
137.985584856508
 31
0.0
  0
LINE
  5
8AFF
330
1F
100
AcDbEntity
  8
0
  6
Continuous
 62
     7
100
AcDbLine
 10
62.95901875729012
 20
130.9855848565971
 30
0.0
 11
62.95901875729009
 21
129.9855848565971
 31
0.0
  0
LINE
  5
8B00
330
1F
100
AcDbEntity
  8
0
  6
Continuous
 62
     7
100
AcDbLine
 10
63.10901875700884
 20
130.8989785424792
 30
0.0
 11
63.10901875700887
 21
130.0721841553866
 31
0.0
  0
CIRCLE
  5
8B02
330
1F
100
AcDbEntity
  8
0
  6
Continuous
 62
     7
100
AcDbCircle
 10
183.3600109701498
 20
130.4855848561738
 30
0.0
 40
0.7500000002874279
  0
CIRCLE
  5
8B03
330
1F
100
AcDbEntity
  8
0
  6
Continuous
 62
     7
100
AcDbCircle
 10
183.3600109701498
 20
130.4855848561738
 30
0.0
 40
0.6633769926014433
  0
CIRCLE
  5
8B04
330
1F
100
AcDbEntity
  8
0
  6
Continuous
 62
     7
100
AcDbCircle
 10
183.3600109701498
 20
130.4855848561738
 30
0.0
 40
1.924999999778175
  0
CIRCLE
  5
8B05
330
1F
100
AcDbEntity
  8
0
  6
Continuous
 62
     7
100
AcDbCircle
 10
183.3600109701498
 20
130.4855848561738
 30
0.0
 40
0.9366025404659586
  0
CIRCLE
  5
8B07
330
1F
100
AcDbEntity
  8
0
  6
Continuous
 62
     7
100
AcDbCircle
 10
183.3600109701498
 20
130.4855848561738
 30
0.0
 40
8.000000000243675
  0
CIRCLE
  5
8B08
330
1F
100
AcDbEntity
  8
0
  6
Continuous
 62
     7
100
AcDbCircle
 10
183.3600109701498
 20
130.4855848561738
 30
0.0
 40
3.000000000303044
  0
CIRCLE
  5
8B09
330
1F
100
AcDbEntity
  8
0
  6
Continuous
 62
     7
100
AcDbCircle
 10
183.3600109701498
 20
130.4855848561738
 30
0.0
 40
1.999999999637585
  0
CIRCLE
  5
8B0A
330
1F
100
AcDbEntity
  8
0
  6
Continuous
 62
     7
100
AcDbCircle
 10
188.3600109700904
 20
130.4855848561738
 30
0.0
 40
1.067985058158257
  0
CIRCLE
  5
8B0B
330
1F
100
AcDbEntity
  8
0
  6
Continuous
 62
     7
100
AcDbCircle
 10
188.3600109700904
 20
130.4855848561738
 30
0.0
 40
0.867990187639832
  0
CIRCLE
  5
8B0C
330
1F
100
AcDbEntity
  8
0
  6
Continuous
 62
     7
100
AcDbCircle
 10
183.3600109701498
 20
130.4855848561738
 30
0.0
 40
2.799999999831285
  0
CIRCLE
  5
8B0D
330
1F
100
AcDbEntity
  8
0
  6
Continuous
 62
     7
100
AcDbCircle
 10
183.3600109701498
 20
130.4855848561738
 30
0.0
 40
2.109191069883392
  0
CIRCLE
  5
8B0E
330
1F
100
AcDbEntity
  8
0
  6
Continuous
 62
     7
100
AcDbCircle
 10
178.3600109702091
 20
130.4855848561738
 30
0.0
 40
0.867990187639832
  0
CIRCLE
  5
8B0F
330
1F
100
AcDbEntity
  8
0
  6
Continuous
 62
     7
100
AcDbCircle
 10
183.3600109701498
 20
130.4855848561738
 30
0.0
 40
7.500000000334278
  0
CIRCLE
  5
8B10
330
1F
100
AcDbEntity
  8
0
  6
Continuous
 62
     7
100
AcDbCircle
 10
183.3600109701498
 20
130.4855848561738
 30
0.0
 40
3.19999977048147
  0
CIRCLE
  5
8B11
330
1F
100
AcDbEntity
  8
0
  6
Continuous
 62
     7
100
AcDbCircle
 10
178.3600109702091
 20
130.4855848561738
 30
0.0
 40
1.067985058158257
  0
ARC
  5
8B12
330
1F
100
AcDbEntity
  8
0
  6
Continuous
 62
     7
100
AcDbCircle
 10
37.50901875753576
 20
127.2855848562456
 30
0.0
 40
0.1999999996250918
100
AcDbArc
 50
0.0000023581000844
 51
90.0
  0
ARC
  5
8B13
330
1F
100
AcDbEntity
  8
0
  6
Continuous
 62
     7
100
AcDbCircle
 10
37.50901875753576
 20
133.6855848561019
 30
0.0
 40
0.1999999996250918
100
AcDbArc
 50
270.0
 51
359.9999976418999
  0
ARC
  5
8B14
330
1F
100
AcDbEntity
  8
0
  6
Continuous
 62
     7
100
AcDbCircle
 10
56.80901875691714
 20
127.2855848562456
 30
0.0
 40
0.1999999996250918
100
AcDbArc
 50
90.0
 51
179.9999976418999
  0
ARC
  5
8B15
330
1F
100
AcDbEntity
  8
0
  6
Continuous
 62
     7
100
AcDbCircle
 10
56.80901875691714
 20
133.6855848561019
 30
0.0
 40
0.1999999996250918
100
AcDbArc
 50
180.0000023581001
 51
270.0
  0
SPLINE
  5
8B16
330
1F
100
AcDbEntity
  8
0
  6
Continuous
 62
     7
100
AcDbSpline
210
0.0
220
0.0
230
1.0
 70
     8
 71
     3
 72
    32
 73
    28
 74
    26
 42
0.0000000001
 43
0.0000000001
 44
0.0000000001
 12
0.4166023348531829
 22
-0.9090888265702513
 32
0.0
 13
0.3416765881680781
 23
-0.9398175935243081
 33
0.0
 40
0.0
 40
0.0
 40
0.0
 40
0.0
 40
0.0571973889534412
 40
0.2272500282810533
 40
0.3973026682566712
 40
0.5673553081973454
 40
0.737407947918769
 40
0.907460587584347
 40
1.077513226811861
 40
1.247565866548478
 40
1.417618506008854
 40
1.587671145778794
 40
1.757723785777796
 40
1.927776425439111
 40
2.097829065100554
 40
2.267881704735308
 40
2.437934344568265
 40
2.607986984211943
 40
2.778039623974088
 40
2.948092263587448
 40
3.118144902809033
 40
3.288197542399971
 40
3.458250182037255
 40
3.628302821456495
 40
3.798355461413676
 40
3.968408101117158
 40
4.085545582968695
 40
4.085545582968695
 40
4.085545582968695
 40
4.085545582968695
 10
187.759564831222
 20
130.2104041085961
 30
0.0
 10
187.7675076864838
 20
130.1930716061939
 30
0.0
 10
187.8020373978545
 20
130.1255727931224
 30
0.0
 10
187.8826645990776
 20
130.0184408557442
 30
0.0
 10
188.0177209327632
 20
129.9120958519253
 30
0.0
 10
188.1754969855817
 20
129.8436972624807
 30
0.0
 10
188.3454954821397
 20
129.8178649390139
 30
0.0
 10
188.5164583559321
 20
129.8362881554562
 30
0.0
 10
188.6770503835732
 20
129.8977518901335
 30
0.0
 10
188.8166273299783
 20
129.9981803061784
 30
0.0
 10
188.9259370098107
 20
130.1309168633576
 30
0.0
 10
188.9977337888926
 20
130.2871628794228
 30
0.0
 10
189.0272585382752
 20
130.4565614805778
 30
0.0
 10
189.0125541865362
 20
130.6278839200768
 30
0.0
 10
188.9545954260658
 20
130.7897739398295
 30
0.0
 10
188.8572241028658
 20
130.9315005136737
 30
0.0
 10
188.7268945641741
 20
131.043669171714
 30
0.0
 10
188.5722458179678
 20
131.1188447087449
 30
0.0
 10
188.4035288946526
 20
131.1520440596896
 30
0.0
 10
188.2319273522028
 20
131.1410665389015
 30
0.0
 10
188.0688159264373
 20
131.0866399364562
 30
0.0
 10
187.9250067012988
 20
130.9923714568244
 30
0.0
 10
187.8100318325941
 20
130.864511689621
 30
0.0
 10
187.7315139064904
 20
130.711528761884
 30
0.0
 10
187.6946524192425
 20
130.5435900552398
 30
0.0
 10
187.7011571630876
 20
130.3895537233656
 30
0.0
 10
187.7259523780669
 20
130.2965322596373
 30
0.0
 10
187.7392934231155
 20
130.2598363042022
 30
0.0
 11
187.759564831222
 21
130.2104041085961
 31
0.0
 11
187.7856235759885
 21
130.1594876758431
 31
0.0
 11
187.8879190466144
 21
130.0236438801375
 31
0.0
 11
188.0215075526131
 21
129.9184202543316
 31
0.0
 11
188.1775340596253
 21
129.8507916401188
 31
0.0
 11
188.3456562117372
 21
129.8252408623324
 31
0.0
 11
188.5147298817161
 21
129.8434615751921
 31
0.0
 11
188.6735478698948
 21
129.9042460036184
 31
0.0
 11
188.8115827855939
 21
130.0035649964109
 31
0.0
 11
188.919684859626
 21
130.1348351064033
 31
0.0
 11
188.9906884505789
 21
130.2893549768554
 31
0.0
 11
189.0198870214252
 21
130.4568821204207
 31
0.0
 11
189.0053451184122
 21
130.6263118501394
 31
0.0
 11
188.9480266656124
 21
130.7864133655115
 31
0.0
 11
188.8517310669932
 21
130.9265741943237
 31
0.0
 11
188.7228413628744
 21
131.0375036515761
 31
0.0
 11
188.569901121809
 21
131.1118486777221
 31
0.0
 11
188.4030481247235
 21
131.1446812477353
 31
0.0
 11
188.2333423715116
 21
131.1338250252687
 31
0.0
 11
188.0720329599861
 21
131.079999623649
 31
0.0
 11
187.929812427394
 21
130.9867729089098
 31
0.0
 11
187.8161079896616
 21
130.8603244961576
 31
0.0
 11
187.7384566463621
 21
130.7090361322387
 31
0.0
 11
187.7020055864223
 21
130.5429361003734
 31
0.0
 11
187.7091710009291
 21
130.3730344903013
 31
0.0
 11
187.7392934231155
 21
130.2598363042022
 31
0.0
  0
SPLINE
  5
8B17
330
1F
100
AcDbEntity
  8
0
  6
Continuous
 62
     7
100
AcDbSpline
210
0.0
220
0.0
230
1.0
 70
     8
 71
     3
 72
    39
 73
    35
 74
    33
 42
0.0000000001
 43
0.0000000001
 44
0.0000000001
 12
0.4937974009949493
 22
-0.8695769815091894
 32
0.0
 13
0.6688292606599664
 23
0.7434160477720689
 33
0.0
 40
0.0
 40
0.0
 40
0.0
 40
0.0
 40
0.1700526393276121
 40
0.34010527930323
 40
0.5101579192439041
 40
0.6802105589653277
 40
0.8502631986309058
 40
1.02031583785842
 40
1.190368477595037
 40
1.360421117055413
 40
1.530473756825353
 40
1.700526396824355
 40
1.87057903648567
 40
2.040631676147113
 40
2.210684315781867
 40
2.380736955614824
 40
2.550789595258502
 40
2.720842235020647
 40
2.890894874634007
 40
3.060947513855592
 40
3.23100015344653
 40
3.401052793083813
 40
3.571105432503054
 40
3.741158072460235
 40
3.911210712163716
 40
4.081263351883185
 40
4.251315992219347
 40
4.421368631666863
 40
4.591421271310273
 40
4.761473910784014
 40
4.931526550867669
 40
5.101579190197909
 40
5.27163182983041
 40
5.385462854605347
 40
5.385462854605347
 40
5.385462854605347
 40
5.385462854605347
 10
187.7856235759885
 20
130.1594876758431
 30
0.0
 10
187.8136140930993
 20
130.1101963889083
 30
0.0
 10
187.8826788660218
 20
130.0184191510861
 30
0.0
 10
188.0177171099469
 20
129.9121016676708
 30
0.0
 10
188.1754980099022
 20
129.8436957041564
 30
0.0
 10
188.3454952076738
 20
129.8178653565656
 30
0.0
 10
188.516458429475
 20
129.8362880435735
 30
0.0
 10
188.6770503638675
 20
129.8977519201123
 30
0.0
 10
188.8166273352585
 20
129.9981802981456
 30
0.0
 10
188.9259370083959
 20
130.1309168655099
 30
0.0
 10
188.9977337892716
 20
130.2871628788466
 30
0.0
 10
189.027258538174
 20
130.4565614807305
 30
0.0
 10
189.0125541865621
 20
130.6278839200422
 30
0.0
 10
188.9545954260634
 20
130.7897739398153
 30
0.0
 10
188.8572241028496
 20
130.9315005137653
 30
0.0
 10
188.7268945642412
 20
131.0436691713619
 30
0.0
 10
188.5722458177153
 20
131.1188447100617
 30
0.0
 10
188.4035288955954
 20
131.1520440547746
 30
0.0
 10
188.2319273486843
 20
131.141066557245
 30
0.0
 10
188.0688159395686
 20
131.0866398679974
 30
0.0
 10
187.9250066522922
 20
130.9923717123162
 30
0.0
 10
187.8100320154894
 20
130.8645107361126
 30
0.0
 10
187.7315132239162
 20
130.7115323204258
 30
0.0
 10
187.6946549666446
 20
130.5435767745809
 30
0.0
 10
187.7019004280523
 20
130.3717771838998
 30
0.0
 10
187.7527693267848
 20
130.2075214314781
 30
0.0
 10
187.8438898109047
 20
130.06169737978
 30
0.0
 10
187.9692217332038
 20
129.9439710212095
 30
0.0
 10
188.120457890387
 20
129.8621462666136
 30
0.0
 10
188.2875714671305
 20
129.8216457770306
 30
0.0
 10
188.4594926201471
 20
129.8251585075915
 30
0.0
 10
188.6247976768606
 20
129.8724354042873
 30
0.0
 10
188.7563406539285
 20
129.9507087428775
 30
0.0
 10
188.8257599540666
 20
130.01574617106
 30
0.0
 10
188.8511377941134
 20
130.0439541079107
 30
0.0
 11
187.7856235759885
 21
130.1594876758431
 31
0.0
 11
187.8879190466144
 21
130.0236438801375
 31
0.0
 11
188.0215075526131
 21
129.9184202543316
 31
0.0
 11
188.1775340596253
 21
129.8507916401188
 31
0.0
 11
188.3456562117372
 21
129.8252408623324
 31
0.0
 11
188.5147298817161
 21
129.8434615751921
 31
0.0
 11
188.6735478698948
 21
129.9042460036184
 31
0.0
 11
188.8115827855939
 21
130.0035649964109
 31
0.0
 11
188.919684859626
 21
130.1348351064033
 31
0.0
 11
188.9906884505789
 21
130.2893549768554
 31
0.0
 11
189.0198870214252
 21
130.4568821204207
 31
0.0
 11
189.0053451184122
 21
130.6263118501394
 31
0.0
 11
188.9480266656124
 21
130.7864133655115
 31
0.0
 11
188.8517310669932
 21
130.9265741943237
 31
0.0
 11
188.7228413628744
 21
131.0375036515761
 31
0.0
 11
188.569901121809
 21
131.1118486777221
 31
0.0
 11
188.4030481247235
 21
131.1446812477353
 31
0.0
 11
188.2333423715116
 21
131.1338250252687
 31
0.0
 11
188.0720329599861
 21
131.079999623649
 31
0.0
 11
187.929812427394
 21
130.9867729089098
 31
0.0
 11
187.8161079896616
 21
130.8603244961576
 31
0.0
 11
187.7384566463621
 21
130.7090361322387
 31
0.0
 11
187.7020055864223
 21
130.5429361003734
 31
0.0
 11
187.7091710009291
 21
130.3730344903013
 31
0.0
 11
187.7594779242755
 21
130.2105933817759
 31
0.0
 11
187.8495917174615
 21
130.0663803284037
 31
0.0
 11
187.9735391056673
 21
129.9499546218779
 31
0.0
 11
188.1231041269992
 21
129.8690336441053
 31
0.0
 11
188.2883727296579
 21
129.8289813137457
 31
0.0
 11
188.4583899376699
 21
129.832452535319
 31
0.0
 11
188.621886007255
 21
129.8792172161519
 31
0.0
 11
188.7680234560676
 21
129.9661755182312
 31
0.0
 11
188.8511377941134
 21
130.0439541079107
 31
0.0
  0
SPLINE
  5
8B18
330
1F
100
AcDbEntity
  8
0
  6
Continuous
 62
     7
100
AcDbSpline
210
0.0
220
0.0
230
1.0
 70
     8
 71
     3
 72
     9
 73
     5
 74
     3
 42
0.0000000001
 43
0.0000000001
 44
0.0000000001
 12
0.6026063983147926
 22
0.7980385508921695
 32
0.0
 13
0.3793163532668685
 23
0.9252670447737369
 33
0.0
 40
0.0
 40
0.0
 40
0.0
 40
0.0
 40
0.1603355382513461
 40
0.1698809673415611
 40
0.1698809673415611
 40
0.1698809673415611
 40
0.1698809673415611
 10
188.8871154336132
 20
130.0875633315036
 30
0.0
 10
188.9193218406891
 20
130.1302146450378
 30
0.0
 10
188.9481133735279
 20
130.1799302111403
 30
0.0
 10
188.9699678628213
 20
130.2321599034606
 30
0.0
 10
188.9711747752722
 20
130.2351039271157
 30
0.0
 11
188.8871154336132
 21
130.0875633315036
 31
0.0
 11
188.9674900006592
 21
130.2262983804225
 31
0.0
 11
188.9711747752722
 21
130.2351039271157
 31
0.0
  0
SPLINE
  5
8B19
330
1F
100
AcDbEntity
  8
0
  6
Continuous
 62
     7
100
AcDbSpline
210
0.0
220
0.0
230
1.0
 70
     8
 71
     3
 72
     8
 73
     4
 74
     2
 42
0.0000000001
 43
0.0000000001
 44
0.0000000001
 12
0.3793163485113359
 22
0.9252670467232835
 32
0.0
 13
0.2911052961505254
 23
0.956691019375177
 33
0.0
 40
0.0
 40
0.0
 40
0.0
 40
0.0
 40
0.0617690704249629
 40
0.0617690704249629
 40
0.0617690704249629
 40
0.0617690704249629
 10
188.9711747752722
 20
130.2351039271157
 30
0.0
 10
188.9789847813537
 20
130.2541548889061
 30
0.0
 10
188.9859070687593
 20
130.2735939992784
 30
0.0
 10
188.9919008366056
 20
130.2932919709286
 30
0.0
 11
188.9711747752722
 21
130.2351039271157
 31
0.0
 11
188.9919008366056
 21
130.2932919709286
 31
0.0
  0
SPLINE
  5
8B1A
330
1F
100
AcDbEntity
  8
0
  6
Continuous
 62
     7
100
AcDbSpline
210
0.0
220
0.0
230
1.0
 70
     8
 71
     3
 72
     9
 73
     5
 74
     3
 42
0.0000000001
 43
0.0000000001
 44
0.0000000001
 12
0.2911052999526789
 22
0.9566910182182443
 32
0.0
 13
0.1385057371647969
 23
0.990361631310723
 33
0.0
 40
0.0
 40
0.0
 40
0.0
 40
0.0
 40
0.0874959481574773
 40
0.1031695195835223
 40
0.1031695195835223
 40
0.1031695195835223
 40
0.1031695195835223
 10
188.9919008366056
 20
130.2932919709286
 30
0.0
 10
189.0003910146832
 20
130.3211941668396
 30
0.0
 10
189.0082377999657
 20
130.3548251835643
 30
0.0
 10
189.0134044131105
 20
130.3888228356993
 30
0.0
 10
189.014128039632
 20
130.3939970036212
 30
0.0
 11
188.9919008366056
 21
130.2932919709286
 31
0.0
 11
189.011772725572
 21
130.3785014127346
 31
0.0
 11
189.014128039632
 21
130.3939970036212
 31
0.0
  0
SPLINE
  5
8B1B
330
1F
100
AcDbEntity
  8
0
  6
Continuous
 62
     7
100
AcDbSpline
210
0.0
220
0.0
230
1.0
 70
     8
 71
     3
 72
     8
 73
     4
 74
     2
 42
0.0000000001
 43
0.0000000001
 44
0.0000000001
 12
0.1385057382583998
 22
0.9903616311577783
 32
0.0
 13
0.0325617567984057
 23
0.9994697254015258
 33
0.0
 40
0.0
 40
0.0
 40
0.0
 40
0.0
 40
0.0703666424983322
 40
0.0703666424983322
 40
0.0703666424983322
 40
0.0703666424983322
 10
189.014128039632
 20
130.3939970036212
 30
0.0
 10
189.0173767675547
 20
130.4172264779025
 30
0.0
 10
189.0193886916653
 20
130.4406621739021
 30
0.0
 10
189.0201524454986
 20
130.4641052835206
 30
0.0
 11
189.014128039632
 21
130.3939970036212
 31
0.0
 11
189.0201524454986
 21
130.4641052835206
 31
0.0
  0
SPLINE
  5
8B1C
330
1F
100
AcDbEntity
  8
0
  6
Continuous
 62
     7
100
AcDbSpline
210
0.0
220
0.0
230
1.0
 70
     8
 71
     3
 72
     9
 73
     5
 74
     3
 42
0.0000000001
 43
0.0000000001
 44
0.0000000001
 12
0.0325617548824178
 22
0.9994697254639469
 32
0.0
 13
-0.1122315828668638
 23
0.9936820778333471
 33
0.0
 40
0.0
 40
0.0
 40
0.0
 40
0.0
 40
0.0745818830651546
 40
0.0956811549037565
 40
0.0956811549037565
 40
0.0956811549037565
 40
0.0956811549037565
 10
189.0201524454986
 20
130.4641052835206
 30
0.0
 10
189.0209619511636
 20
130.4889527282511
 30
0.0
 10
189.0202045582448
 20
130.5209320766066
 30
0.0
 10
189.0171321038174
 20
130.5526785318062
 30
0.0
 10
189.0163427689254
 20
130.5596671878999
 30
0.0
 11
189.0201524454986
 21
130.4641052835206
 31
0.0
 11
189.018374581812
 21
130.5386659734466
 31
0.0
 11
189.0163427689254
 21
130.5596671878999
 31
0.0
  0
SPLINE
  5
8B1D
330
1F
100
AcDbEntity
  8
0
  6
Continuous
 62
     7
100
AcDbSpline
210
0.0
220
0.0
230
1.0
 70
     8
 71
     3
 72
     8
 73
     4
 74
     2
 42
0.0000000001
 43
0.0000000001
 44
0.0000000001
 12
-0.1122315822464338
 22
0.9936820779034219
 32
0.0
 13
-0.2180485820979648
 23
0.9759379159788123
 33
0.0
 40
0.0
 40
0.0
 40
0.0
 40
0.0
 40
0.0709366401900932
 40
0.0709366401900932
 40
0.0709366401900932
 40
0.0709366401900932
 10
189.0163427689254
 20
130.5596671878999
 30
0.0
 10
189.0136889918028
 20
130.5831633439078
 30
0.0
 10
189.009764753643
 20
130.6065500382015
 30
0.0
 10
189.0046088757056
 20
130.6296266237994
 30
0.0
 11
189.0163427689254
 21
130.5596671878999
 31
0.0
 11
189.0046088757056
 21
130.6296266237994
 31
0.0
  0
SPLINE
  5
8B1E
330
1F
100
AcDbEntity
  8
0
  6
Continuous
 62
     7
100
AcDbSpline
210
0.0
220
0.0
230
1.0
 70
     8
 71
     3
 72
     9
 73
     5
 74
     3
 42
0.0000000001
 43
0.0000000001
 44
0.0000000001
 12
-0.2180485871464801
 22
0.9759379148508495
 32
0.0
 13
-0.3550214498701854
 23
0.93485815508668
 33
0.0
 40
0.0
 40
0.0
 40
0.0
 40
0.0
 40
0.0669429186138814
 40
0.0943999949690325
 40
0.0943999949690325
 40
0.0943999949690325
 40
0.0943999949690325
 10
189.0046088757056
 20
130.6296266237994
 30
0.0
 10
188.9997432727646
 20
130.6514040012681
 30
0.0
 10
188.9913196489632
 20
130.6817976470183
 30
0.0
 10
188.9807600906511
 20
130.7114453869768
 30
0.0
 10
188.9775108069655
 20
130.7200015442253
 30
0.0
 11
189.0046088757056
 21
130.6296266237994
 31
0.0
 11
188.9867220754789
 21
130.6941356675854
 31
0.0
 11
188.9775108069655
 21
130.7200015442253
 31
0.0
  0
SPLINE
  5
8B1F
330
1F
100
AcDbEntity
  8
0
  6
Continuous
 62
     7
100
AcDbSpline
210
0.0
220
0.0
230
1.0
 70
     8
 71
     3
 72
     8
 73
     4
 74
     2
 42
0.0000000001
 43
0.0000000001
 44
0.0000000001
 12
-0.3550214479501562
 22
0.9348581558158299
 32
0.0
 13
-0.4544228855565081
 23
0.8907860804269994
 33
0.0
 40
0.0
 40
0.0
 40
0.0
 40
0.0
 40
0.0719473103651544
 40
0.0719473103651544
 40
0.0719473103651544
 40
0.0719473103651544
 10
188.9775108069655
 20
130.7200015442253
 30
0.0
 10
188.9689965275316
 20
130.7424217208532
 30
0.0
 10
188.9592456213473
 20
130.7644100062256
 30
0.0
 10
188.9483474532192
 20
130.7857732270915
 30
0.0
 11
188.9775108069655
 21
130.7200015442253
 31
0.0
 11
188.9483474532192
 21
130.7857732270915
 31
0.0
  0
SPLINE
  5
8B20
330
1F
100
AcDbEntity
  8
0
  6
Continuous
 62
     7
100
AcDbSpline
210
0.0
220
0.0
230
1.0
 70
     8
 71
     3
 72
     8
 73
     4
 74
     2
 42
0.0000000001
 43
0.0000000001
 44
0.0000000001
 12
-0.4544228776284591
 22
0.8907860844713901
 32
0.0
 13
-0.5319693382115878
 23
0.8467636170754653
 33
0.0
 40
0.0
 40
0.0
 40
0.0
 40
0.0
 40
0.0588539344925431
 40
0.0588539344925431
 40
0.0588539344925431
 40
0.0588539344925431
 10
188.9483474532192
 20
130.7857732270915
 30
0.0
 10
188.9394325951286
 20
130.8032486490456
 30
0.0
 10
188.9297308344607
 20
130.8203446518211
 30
0.0
 10
188.9192946715996
 20
130.8369564419711
 30
0.0
 11
188.9483474532192
 21
130.7857732270915
 31
0.0
 11
188.9192946715996
 21
130.8369564419711
 31
0.0
  0
SPLINE
  5
8B21
330
1F
100
AcDbEntity
  8
0
  6
Continuous
 62
     7
100
AcDbSpline
210
0.0
220
0.0
230
1.0
 70
     8
 71
     3
 72
     8
 73
     4
 74
     2
 42
0.0000000001
 43
0.0000000001
 44
0.0000000001
 12
-0.5319693391334998
 22
0.8467636164962849
 32
0.0
 13
-0.5763825317821098
 23
0.8171800150862999
 33
0.0
 40
0.0
 40
0.0
 40
0.0
 40
0.0
 40
0.0351715210705197
 40
0.0351715210705197
 40
0.0351715210705197
 40
0.0351715210705197
 10
188.9192946715996
 20
130.8369564419711
 30
0.0
 10
188.9130579479929
 20
130.8468837634309
 30
0.0
 10
188.9065532864735
 20
130.8566476573046
 30
0.0
 10
188.8997958696864
 20
130.8662281453442
 30
0.0
 11
188.9192946715996
 21
130.8369564419711
 31
0.0
 11
188.8997958696864
 21
130.8662281453442
 31
0.0
  0
SPLINE
  5
8B22
330
1F
100
AcDbEntity
  8
0
  6
Continuous
 62
     7
100
AcDbSpline
210
0.0
220
0.0
230
1.0
 70
     8
 71
     3
 72
     8
 73
     4
 74
     2
 42
0.0000000001
 43
0.0000000001
 44
0.0000000001
 12
-0.5763825398924815
 22
0.8171800093658019
 32
0.0
 13
-0.6119050054873505
 23
0.7909312639284943
 33
0.0
 40
0.0
 40
0.0
 40
0.0
 40
0.0
 40
0.0292103047488183
 40
0.0292103047488183
 40
0.0292103047488183
 40
0.0292103047488183
 10
188.8997958696864
 20
130.8662281453442
 30
0.0
 10
188.8941837664724
 20
130.8741848377136
 30
0.0
 10
188.8883943219022
 20
130.8820193444524
 30
0.0
 10
188.882436344673
 20
130.8897204588707
 30
0.0
 11
188.8997958696864
 21
130.8662281453442
 31
0.0
 11
188.882436344673
 21
130.8897204588707
 31
0.0
  0
SPLINE
  5
8B23
330
1F
100
AcDbEntity
  8
0
  6
Continuous
 62
     7
100
AcDbSpline
210
0.0
220
0.0
230
1.0
 70
     8
 71
     3
 72
    37
 73
    33
 74
    31
 42
0.0000000001
 43
0.0000000001
 44
0.0000000001
 12
-0.992575739025106
 22
-0.1216281311981929
 32
0.0
 13
-0.9662180048765129
 23
-0.2577261473976807
 33
0.0
 40
0.0
 40
0.0
 40
0.0
 40
0.0
 40
0.0156751121775057
 40
0.031868367625912
 40
0.0473911954172768
 40
0.0623186849282837
 40
0.0766571770503495
 40
0.0904135429836497
 40
0.1035950911701607
 40
0.1162094762771839
 40
0.1282646159064749
 40
0.139768624580787
 40
0.1507297459768712
 40
0.1611563048502388
 40
0.1710566584316962
 40
0.1804398535478651
 40
0.1893204396466454
 40
0.1977072618694693
 40
0.2056065659174793
 40
0.213024843540115
 40
0.2199687226755099
 40
0.2264449356503004
 40
0.2324603085446022
 40
0.2380238260974879
 40
0.2431640758417676
 40
0.2479127539860988
 40
0.2523029768896647
 40
0.2563713025028958
 40
0.2601568772663643
 40
0.2637003734663535
 40
0.2670430262543418
 40
0.2702260287303031
 40
0.2702260287303031
 40
0.2702260287303031
 40
0.2702260287303031
 10
188.2796755884711
 20
131.1411811319687
 30
0.0
 10
188.2744893431198
 20
131.1405456204352
 30
0.0
 10
188.2639575148314
 20
131.1391526181915
 30
0.0
 10
188.248339271657
 20
131.1367757641588
 30
0.0
 10
188.2330158485673
 20
131.1341379589934
 30
0.0
 10
188.2183516025698
 20
131.1313312510289
 30
0.0
 10
188.2043161248669
 20
131.1283843433392
 30
0.0
 10
188.1909003767761
 20
131.1253282469598
 30
0.0
 10
188.1780941149196
 20
131.122192244894
 30
0.0
 10
188.1658861204227
 20
131.1190038428692
 30
0.0
 10
188.1542644096923
 20
131.1157887341424
 30
0.0
 10
188.143216425419
 20
131.1125708108763
 30
0.0
 10
188.1327292077498
 20
131.1093721865722
 30
0.0
 10
188.1227895503614
 20
131.1062132330199
 30
0.0
 10
188.1133839148844
 20
131.1031125611048
 30
0.0
 10
188.1044968096278
 20
131.1000864648408
 30
0.0
 10
188.09611269866
 20
131.0971495188134
 30
0.0
 10
188.0882170962526
 20
131.0943150192321
 30
0.0
 10
188.0807982413955
 20
131.0915957245012
 30
0.0
 10
188.0738453038592
 20
131.0890032857848
 30
0.0
 10
188.0673475855457
 20
131.0865479827898
 30
0.0
 10
188.0612946214206
 20
131.084238757226
 30
0.0
 10
188.055675594964
 20
131.082082996069
 30
0.0
 10
188.0504733202404
 20
131.0800842003177
 30
0.0
 10
188.0456633302499
 20
131.0782416702672
 30
0.0
 10
188.0412140542795
 20
131.0765508300884
 30
0.0
 10
188.0370917346646
 20
131.0750055551938
 30
0.0
 10
188.0332604166953
 20
131.0735987909636
 30
0.0
 10
188.0296816872444
 20
131.0723233913802
 30
0.0
 10
188.0263151722931
 20
131.0711737391075
 30
0.0
 10
188.0231189391066
 20
131.070148683288
 30
0.0
 10
188.0210297122803
 20
131.0695411115643
 30
0.0
 10
188.0200045541797
 20
131.0692676639092
 30
0.0
 11
188.2796755884711
 21
131.1411811319687
 31
0.0
 11
188.2641358362978
 21
131.1391255920952
 31
0.0
 11
188.248126910565
 21
131.1366892384886
 31
0.0
 11
188.2328290739184
 21
131.134055918042
 31
0.0
 11
188.218167681685
 21
131.1312499385553
 31
0.0
 11
188.2041351028584
 21
131.1283039093955
 31
0.0
 11
188.1907222713319
 21
131.1252488227955
 31
0.0
 11
188.1779189212723
 21
131.122113948022
 31
0.0
 11
188.1657138140252
 21
131.1189267754955
 31
0.0
 11
188.1540949514788
 21
131.1157129888488
 31
0.0
 11
188.1430497614791
 21
131.1124964700089
 31
0.0
 11
188.1325652756325
 21
131.1092993245956
 31
0.0
 11
188.1226282783192
 21
131.1061419183288
 31
0.0
 11
188.1132254455456
 21
131.1030429286755
 31
0.0
 11
188.1043428081594
 21
131.100019172129
 31
0.0
 11
188.0959612992261
 21
131.0970840200957
 31
0.0
 11
188.0880674211858
 21
131.0942510929024
 31
0.0
 11
188.0806503121526
 21
131.0915334656225
 31
0.0
 11
188.0736991102395
 21
131.088942783309
 31
0.0
 11
188.0672031110394
 21
131.086489326189
 31
0.0
 11
188.0611518489059
 21
131.0841820418358
 31
0.0
 11
188.0555351536794
 21
131.0820285688757
 31
0.0
 11
188.0503412702397
 21
131.0800345020824
 31
0.0
 11
188.0455405999665
 21
131.0781971854626
 31
0.0
 11
188.0411010457263
 21
131.0765118658292
 31
0.0
 11
188.0369894740664
 21
131.0749726986425
 31
0.0
 11
188.0331696552733
 21
131.0735726066158
 31
0.0
 11
188.0296028094732
 21
131.0723044633559
 31
0.0
 11
188.0262482272397
 21
131.0711629103092
 31
0.0
 11
188.0230635913266
 21
131.0701473209425
 31
0.0
 11
188.0200045541797
 21
131.0692676639092
 31
0.0
  0
SPLINE
  5
8B24
330
1F
100
AcDbEntity
  8
0
  6
Continuous
 62
     7
100
AcDbSpline
210
0.0
220
0.0
230
1.0
 70
     8
 71
     3
 72
    13
 73
     9
 74
     7
 42
0.0000000001
 43
0.0000000001
 44
0.0000000001
 12
-0.966218004754636
 22
-0.2577261478545978
 32
0.0
 13
-0.2086477509556742
 23
-0.9779908568187838
 33
0.0
 40
0.0
 40
0.0
 40
0.0
 40
0.0
 40
0.1397933470914573
 40
0.2749003291376795
 40
0.411088542155076
 40
0.549794702109939
 40
0.689038035443754
 40
0.8259034734109366
 40
0.8259034734109366
 40
0.8259034734109366
 40
0.8259034734109366
 10
188.0200045541797
 20
131.0692676639092
 30
0.0
 10
187.9749809378781
 20
131.057258196962
 30
0.0
 10
187.8887228326239
 20
131.0240576631375
 30
0.0
 10
187.7724547737106
 20
130.950078380554
 30
0.0
 10
187.6722286581807
 20
130.8560202813835
 30
0.0
 10
187.5898402820474
 20
130.7443265193979
 30
0.0
 10
187.5282071054635
 20
130.6198090141896
 30
0.0
 10
187.5016580706157
 20
130.531177656656
 30
0.0
 10
187.4921391820106
 20
130.4865599410072
 30
0.0
 11
188.0200045541797
 21
131.0692676639092
 31
0.0
 11
187.8894525165809
 21
131.0192842129496
 31
0.0
 11
187.7753427185551
 21
130.9469457681768
 31
0.0
 11
187.6759149959826
 21
130.8538793545308
 31
0.0
 11
187.5934329926298
 21
130.7423620108917
 31
0.0
 11
187.5315351949972
 21
130.6176328301594
 31
0.0
 11
187.4921391820106
 21
130.4865599410072
 31
0.0
  0
SPLINE
  5
8B25
330
1F
100
AcDbEntity
  8
0
  6
Continuous
 62
     7
100
AcDbSpline
210
0.0
220
0.0
230
1.0
 70
     8
 71
     3
 72
    32
 73
    28
 74
    26
 42
0.0000000001
 43
0.0000000001
 44
0.0000000001
 12
-0.4166023348531829
 22
0.9090888265702513
 32
0.0
 13
-0.3416765881680781
 23
0.9398175935243081
 33
0.0
 40
0.0
 40
0.0
 40
0.0
 40
0.0
 40
0.0571973889534918
 40
0.2272500282810131
 40
0.3973026682567365
 40
0.5673553078604377
 40
0.7374079477093105
 40
0.9074605873749009
 40
1.077513227392981
 40
1.247565866442502
 40
1.417618505902645
 40
1.587671145672689
 40
1.757723785671618
 40
1.927776425332989
 40
2.097829064994325
 40
2.267881704629079
 40
2.43793434446232
 40
2.607986984105843
 40
2.77803962303737
 40
2.948092263495512
 40
3.118144902717276
 40
3.288197542308467
 40
3.458250181945489
 40
3.628302821364729
 40
3.798355461321967
 40
3.968408101061061
 40
4.085545582912487
 40
4.085545582912487
 40
4.085545582912487
 40
4.085545582912487
 10
178.9604571090777
 20
130.7607656045983
 30
0.0
 10
178.9525142538159
 20
130.7780981070005
 30
0.0
 10
178.9179845424484
 20
130.8455969200807
 30
0.0
 10
178.8373573411863
 20
130.9527288573514
 30
0.0
 10
178.7023010077546
 20
131.0590738615543
 30
0.0
 10
178.5445249544151
 20
131.1274724493302
 30
0.0
 10
178.3745264582574
 20
131.1533047745971
 30
0.0
 10
178.2035635841593
 20
131.1348815574433
 30
0.0
 10
178.042971556172
 20
131.0734178235724
 30
0.0
 10
177.9033946102745
 20
130.9729894066751
 30
0.0
 10
177.7940849304623
 20
130.8402528498801
 30
0.0
 10
177.7222881514147
 20
130.6840068337599
 30
0.0
 10
177.6927634020224
 20
130.5146082326196
 30
0.0
 10
177.707467753764
 20
130.3432857931168
 30
0.0
 10
177.7654265142337
 20
130.1813957733646
 30
0.0
 10
177.8627978374345
 20
130.0396691995223
 30
0.0
 10
177.9931273761242
 20
129.9275005414737
 30
0.0
 10
178.1477761220859
 20
129.8523250045968
 30
0.0
 10
178.3164930453442
 20
129.8191256534292
 30
0.0
 10
178.4880945878283
 20
129.8301031742275
 30
0.0
 10
178.6512060138638
 20
129.8845297767313
 30
0.0
 10
178.7950152389952
 20
129.9787982563712
 30
0.0
 10
178.9099901077291
 20
130.106658023574
 30
0.0
 10
178.9885080337211
 20
130.2596409513066
 30
0.0
 10
179.025369521389
 20
130.4275796579802
 30
0.0
 10
179.0188647761426
 20
130.5816159898075
 30
0.0
 10
178.9940695613862
 20
130.674637453557
 30
0.0
 10
178.9807285163377
 20
130.711333408992
 30
0.0
 11
178.9604571090777
 21
130.7607656045983
 31
0.0
 11
178.9343983643112
 21
130.8116820373513
 31
0.0
 11
178.8321028936853
 21
130.9475258330568
 31
0.0
 11
178.6985143876867
 21
131.0527494588628
 31
0.0
 11
178.5424878806746
 21
131.1203780722288
 31
0.0
 11
178.3743657285625
 21
131.1459288508619
 31
0.0
 11
178.2052920585837
 21
131.1277081380021
 31
0.0
 11
178.0464740695584
 21
131.0669237095759
 31
0.0
 11
177.9084391547058
 21
130.9676047167833
 31
0.0
 11
177.800337080674
 21
130.8363346067911
 31
0.0
 11
177.7293334897211
 21
130.6818147363389
 31
0.0
 11
177.7001349188745
 21
130.5142875927737
 31
0.0
 11
177.7146768218875
 21
130.3448578630549
 31
0.0
 11
177.7719952746873
 21
130.1847563476829
 31
0.0
 11
177.8682908733065
 21
130.0445955188707
 31
0.0
 11
177.9971805774256
 21
129.9336660616181
 31
0.0
 11
178.1501208184907
 21
129.859321035472
 31
0.0
 11
178.3169738147297
 21
129.826488465459
 31
0.0
 11
178.4866795687881
 21
129.8373446879255
 31
0.0
 11
178.6479889803139
 21
129.8911700895451
 31
0.0
 11
178.7902095129062
 21
129.9843968042844
 31
0.0
 11
178.9039139506381
 21
130.1108452170367
 31
0.0
 11
178.9815652939376
 21
130.2621335809555
 31
0.0
 11
179.0180163538774
 21
130.428233612821
 31
0.0
 11
179.0108509385241
 21
130.598135222893
 31
0.0
 11
178.9807285163377
 21
130.711333408992
 31
0.0
  0
SPLINE
  5
8B26
330
1F
100
AcDbEntity
  8
0
  6
Continuous
 62
     7
100
AcDbSpline
210
0.0
220
0.0
230
1.0
 70
     8
 71
     3
 72
    39
 73
    35
 74
    33
 42
0.0000000001
 43
0.0000000001
 44
0.0000000001
 12
-0.4937974009949493
 22
0.8695769815091894
 32
0.0
 13
-0.6688292606599664
 23
-0.7434160477720689
 33
0.0
 40
0.0
 40
0.0
 40
0.0
 40
0.0
 40
0.1700526393275212
 40
0.3401052793032447
 40
0.5101579189069458
 40
0.6802105587558187
 40
0.850263198421409
 40
1.020315838439489
 40
1.19036847748901
 40
1.360421116949153
 40
1.530473756719197
 40
1.700526396718126
 40
1.870579036379498
 40
2.040631676040833
 40
2.210684315675587
 40
2.380736955508828
 40
2.550789595152351
 40
2.720842234083879
 40
2.89089487454202
 40
3.060947513763785
 40
3.231000153354975
 40
3.401052792991997
 40
3.571105432411238
 40
3.741158072368475
 40
3.911210712107568
 40
4.081263351576423
 40
4.251315991912537
 40
4.421368631360014
 40
4.591421271003732
 40
4.761473910477708
 40
4.931526550560908
 40
5.101579190124456
 40
5.271631830051489
 40
5.385462854786747
 40
5.385462854786747
 40
5.385462854786747
 40
5.385462854786747
 10
178.9343983643112
 20
130.8116820373513
 30
0.0
 10
178.9064078472005
 20
130.860973324286
 30
0.0
 10
178.8373430742409
 20
130.9527505620063
 30
0.0
 10
178.7023048305711
 20
131.0590680458095
 30
0.0
 10
178.5445239300946
 20
131.1274740076543
 30
0.0
 10
178.3745267327232
 20
131.1533043570454
 30
0.0
 10
178.2035635106164
 20
131.134881669326
 30
0.0
 10
178.0429715758778
 20
131.0734177935935
 30
0.0
 10
177.9033946049944
 20
130.9729894147079
 30
0.0
 10
177.7940849318771
 20
130.8402528477278
 30
0.0
 10
177.7222881510357
 20
130.6840068343362
 30
0.0
 10
177.6927634021236
 20
130.5146082324668
 30
0.0
 10
177.7074677537381
 20
130.3432857931514
 30
0.0
 10
177.7654265142362
 20
130.1813957733788
 30
0.0
 10
177.8627978374506
 20
130.0396691994308
 30
0.0
 10
177.9931273760571
 20
129.9275005418258
 30
0.0
 10
178.1477761223384
 20
129.85232500328
 30
0.0
 10
178.3164930444015
 20
129.8191256583443
 30
0.0
 10
178.4880945913467
 20
129.830103155884
 30
0.0
 10
178.6512060007328
 20
129.8845298451903
 30
0.0
 10
178.7950152880008
 20
129.978798000879
 30
0.0
 10
178.9099899248378
 20
130.106658977084
 30
0.0
 10
178.9885087162811
 20
130.2596373927588
 30
0.0
 10
179.0253669740401
 20
130.4275929386613
 30
0.0
 10
179.0181215108215
 20
130.5993925290996
 30
0.0
 10
178.9672526138432
 20
130.7636482818807
 30
0.0
 10
178.8761321292947
 20
130.9094723333914
 30
0.0
 10
178.7508002071267
 20
131.0271986919829
 30
0.0
 10
178.5995640498921
 20
131.1090234466107
 30
0.0
 10
178.4324504732228
 20
131.1495239360464
 30
0.0
 10
178.2605293198814
 20
131.146011206041
 30
0.0
 10
178.0952242639127
 20
131.0987343071855
 30
0.0
 10
177.9636812848654
 20
131.0204609713162
 30
0.0
 10
177.8942619862243
 20
130.9554235412779
 30
0.0
 10
177.8688841461863
 20
130.927215604437
 30
0.0
 11
178.9343983643112
 21
130.8116820373513
 31
0.0
 11
178.8321028936853
 21
130.9475258330568
 31
0.0
 11
178.6985143876867
 21
131.0527494588628
 31
0.0
 11
178.5424878806746
 21
131.1203780722288
 31
0.0
 11
178.3743657285625
 21
131.1459288508619
 31
0.0
 11
178.2052920585837
 21
131.1277081380021
 31
0.0
 11
178.0464740695584
 21
131.0669237095759
 31
0.0
 11
177.9084391547058
 21
130.9676047167833
 31
0.0
 11
177.800337080674
 21
130.8363346067911
 31
0.0
 11
177.7293334897211
 21
130.6818147363389
 31
0.0
 11
177.7001349188745
 21
130.5142875927737
 31
0.0
 11
177.7146768218875
 21
130.3448578630549
 31
0.0
 11
177.7719952746873
 21
130.1847563476829
 31
0.0
 11
177.8682908733065
 21
130.0445955188707
 31
0.0
 11
177.9971805774256
 21
129.9336660616181
 31
0.0
 11
178.1501208184907
 21
129.859321035472
 31
0.0
 11
178.3169738147297
 21
129.826488465459
 31
0.0
 11
178.4866795687881
 21
129.8373446879255
 31
0.0
 11
178.6479889803139
 21
129.8911700895451
 31
0.0
 11
178.7902095129062
 21
129.9843968042844
 31
0.0
 11
178.9039139506381
 21
130.1108452170367
 31
0.0
 11
178.9815652939376
 21
130.2621335809555
 31
0.0
 11
179.0180163538774
 21
130.428233612821
 31
0.0
 11
179.0108509385241
 21
130.598135222893
 31
0.0
 11
178.9605440160247
 21
130.7605763314183
 31
0.0
 11
178.8704302228387
 21
130.9047893847905
 31
0.0
 11
178.7464828346329
 21
131.0212150913162
 31
0.0
 11
178.5969178133008
 21
131.1021360690891
 31
0.0
 11
178.4316492106419
 21
131.1421883994488
 31
0.0
 11
178.2616320026303
 21
131.1387171778754
 31
0.0
 11
178.0981359330447
 21
131.0919524961957
 31
0.0
 11
177.9519984833856
 21
131.004994194963
 31
0.0
 11
177.8688841461863
 21
130.927215604437
 31
0.0
  0
SPLINE
  5
8B27
330
1F
100
AcDbEntity
  8
0
  6
Continuous
 62
     7
100
AcDbSpline
210
0.0
220
0.0
230
1.0
 70
     8
 71
     3
 72
     9
 73
     5
 74
     3
 42
0.0000000001
 43
0.0000000001
 44
0.0000000001
 12
-0.6026063983147926
 22
-0.7980385508921695
 32
0.0
 13
-0.3793163532668685
 23
-0.9252670447737369
 33
0.0
 40
0.0
 40
0.0
 40
0.0
 40
0.0
 40
0.1603355386761187
 40
0.1698809674394015
 40
0.1698809674394015
 40
0.1698809674394015
 40
0.1698809674394015
 10
177.8329065066869
 20
130.8836063816908
 30
0.0
 10
177.8007000995257
 20
130.8409550680435
 30
0.0
 10
177.771908559961
 20
130.7912395048246
 30
0.0
 10
177.7500540774371
 20
130.7390098096329
 30
0.0
 10
177.7488471650275
 20
130.7360657860785
 30
0.0
 11
177.8329065066869
 21
130.8836063816908
 31
0.0
 11
177.752531938794
 21
130.7448713327717
 31
0.0
 11
177.7488471650275
 21
130.7360657860785
 31
0.0
  0
SPLINE
  5
8B28
330
1F
100
AcDbEntity
  8
0
  6
Continuous
 62
     7
100
AcDbSpline
210
0.0
220
0.0
230
1.0
 70
     8
 71
     3
 72
     8
 73
     4
 74
     2
 42
0.0000000001
 43
0.0000000001
 44
0.0000000001
 12
-0.3793163485113359
 22
-0.9252670467232835
 32
0.0
 13
-0.2911052961505254
 23
-0.956691019375177
 33
0.0
 40
0.0
 40
0.0
 40
0.0
 40
0.0
 40
0.0617690707090025
 40
0.0617690707090025
 40
0.0617690707090025
 40
0.0617690707090025
 10
177.7488471650275
 20
130.7360657860785
 30
0.0
 10
177.74103715891
 20
130.7170148242006
 30
0.0
 10
177.7341148707215
 20
130.6975757140065
 30
0.0
 10
177.7281211028476
 20
130.6778777422657
 30
0.0
 11
177.7488471650275
 21
130.7360657860785
 31
0.0
 11
177.7281211028476
 21
130.6778777422657
 31
0.0
  0
SPLINE
  5
8B29
330
1F
100
AcDbEntity
  8
0
  6
Continuous
 62
     7
100
AcDbSpline
210
0.0
220
0.0
230
1.0
 70
     8
 71
     3
 72
     9
 73
     5
 74
     3
 42
0.0000000001
 43
0.0000000001
 44
0.0000000001
 12
-0.2911052999526789
 22
-0.9566910182182443
 32
0.0
 13
-0.1385057371647969
 23
-0.990361631310723
 33
0.0
 40
0.0
 40
0.0
 40
0.0
 40
0.0
 40
0.0874959479652746
 40
0.1031695195185275
 40
0.1031695195185275
 40
0.1031695195185275
 40
0.1031695195185275
 10
177.7281211028476
 20
130.6778777422657
 30
0.0
 10
177.7196309247886
 20
130.649975546416
 30
0.0
 10
177.7117841426971
 20
130.6163445291572
 30
0.0
 10
177.7066175263485
 20
130.582346877537
 30
0.0
 10
177.7058938998212
 20
130.577172709573
 30
0.0
 11
177.7281211028476
 21
130.6778777422657
 31
0.0
 11
177.7082492147277
 21
130.5926683004597
 31
0.0
 11
177.7058938998212
 21
130.577172709573
 31
0.0
  0
SPLINE
  5
8B2A
330
1F
100
AcDbEntity
  8
0
  6
Continuous
 62
     7
100
AcDbSpline
210
0.0
220
0.0
230
1.0
 70
     8
 71
     3
 72
     8
 73
     4
 74
     2
 42
0.0000000001
 43
0.0000000001
 44
0.0000000001
 12
-0.1385057382583998
 22
-0.9903616311577783
 32
0.0
 13
-0.0325617567984057
 23
-0.9994697254015258
 33
0.0
 40
0.0
 40
0.0
 40
0.0
 40
0.0
 40
0.0703666424259151
 40
0.0703666424259151
 40
0.0703666424259151
 40
0.0703666424259151
 10
177.7058938998212
 20
130.577172709573
 30
0.0
 10
177.7026451719019
 20
130.5539432353157
 30
0.0
 10
177.7006332486336
 20
130.5305075392679
 30
0.0
 10
177.6998694948011
 20
130.5070644296736
 30
0.0
 11
177.7058938998212
 21
130.577172709573
 31
0.0
 11
177.6998694948011
 21
130.5070644296736
 31
0.0
  0
SPLINE
  5
8B2B
330
1F
100
AcDbEntity
  8
0
  6
Continuous
 62
     7
100
AcDbSpline
210
0.0
220
0.0
230
1.0
 70
     8
 71
     3
 72
     9
 73
     5
 74
     3
 42
0.0000000001
 43
0.0000000001
 44
0.0000000001
 12
-0.0325617548824178
 22
-0.9994697254639469
 32
0.0
 13
0.1122315828668638
 23
-0.9936820778333471
 33
0.0
 40
0.0
 40
0.0
 40
0.0
 40
0.0
 40
0.0745818830650978
 40
0.095681155664704
 40
0.095681155664704
 40
0.095681155664704
 40
0.095681155664704
 10
177.6998694948011
 20
130.5070644296736
 30
0.0
 10
177.6990599891361
 20
130.4822169849431
 30
0.0
 10
177.6998173836938
 20
130.4502376364913
 30
0.0
 10
177.7028898356074
 20
130.4184911807937
 30
0.0
 10
177.7036791705278
 20
130.4115025244478
 30
0.0
 11
177.6998694948011
 21
130.5070644296736
 31
0.0
 11
177.7016473584877
 21
130.4325037397476
 31
0.0
 11
177.7036791705278
 21
130.4115025244478
 31
0.0
  0
SPLINE
  5
8B2C
330
1F
100
AcDbEntity
  8
0
  6
Continuous
 62
     7
100
AcDbSpline
210
0.0
220
0.0
230
1.0
 70
     8
 71
     3
 72
     8
 73
     4
 74
     2
 42
0.0000000001
 43
0.0000000001
 44
0.0000000001
 12
0.1122315822464338
 22
-0.9936820779034219
 32
0.0
 13
0.2180485820979648
 23
-0.9759379159788123
 33
0.0
 40
0.0
 40
0.0
 40
0.0
 40
0.0
 40
0.0709366394953047
 40
0.0709366394953047
 40
0.0709366394953047
 40
0.0709366394953047
 10
177.7036791705278
 20
130.4115025244478
 30
0.0
 10
177.7063329476244
 20
130.3880063686701
 30
0.0
 10
177.7102571867074
 20
130.3646196747668
 30
0.0
 10
177.7154130645943
 20
130.3415430893949
 30
0.0
 11
177.7036791705278
 21
130.4115025244478
 31
0.0
 11
177.7154130645943
 21
130.3415430893949
 31
0.0
  0
SPLINE
  5
8B2D
330
1F
100
AcDbEntity
  8
0
  6
Continuous
 62
     7
100
AcDbSpline
210
0.0
220
0.0
230
1.0
 70
     8
 71
     3
 72
     9
 73
     5
 74
     3
 42
0.0000000001
 43
0.0000000001
 44
0.0000000001
 12
0.2180485871464801
 22
-0.9759379148508495
 32
0.0
 13
0.3550214498701854
 23
-0.93485815508668
 33
0.0
 40
0.0
 40
0.0
 40
0.0
 40
0.0
 40
0.0669429186139362
 40
0.0943999946848715
 40
0.0943999946848715
 40
0.0943999946848715
 40
0.0943999946848715
 10
177.7154130645943
 20
130.3415430893949
 30
0.0
 10
177.7202786675354
 20
130.3197657119262
 30
0.0
 10
177.7287022922257
 20
130.2893720665931
 30
0.0
 10
177.7392618488353
 20
130.2597243261289
 30
0.0
 10
177.7425111324872
 20
130.251168168969
 30
0.0
 11
177.7154130645943
 21
130.3415430893949
 31
0.0
 11
177.733299864821
 21
130.2770340456088
 31
0.0
 11
177.7425111324872
 21
130.251168168969
 31
0.0
  0
SPLINE
  5
8B2E
330
1F
100
AcDbEntity
  8
0
  6
Continuous
 62
     7
100
AcDbSpline
210
0.0
220
0.0
230
1.0
 70
     8
 71
     3
 72
     8
 73
     4
 74
     2
 42
0.0000000001
 43
0.0000000001
 44
0.0000000001
 12
0.3550214479501562
 22
-0.9348581558158299
 32
0.0
 13
0.4544228855565081
 23
-0.8907860804269994
 33
0.0
 40
0.0
 40
0.0
 40
0.0
 40
0.0
 40
0.0719473107084148
 40
0.0719473107084148
 40
0.0719473107084148
 40
0.0719473107084148
 10
177.7425111324872
 20
130.251168168969
 30
0.0
 10
177.7510254119618
 20
130.228747992234
 30
0.0
 10
177.7607763189004
 20
130.2067597070706
 30
0.0
 10
177.7716744870805
 20
130.1853964861028
 30
0.0
 11
177.7425111324872
 21
130.251168168969
 31
0.0
 11
177.7716744870805
 21
130.1853964861028
 31
0.0
  0
SPLINE
  5
8B2F
330
1F
100
AcDbEntity
  8
0
  6
Continuous
 62
     7
100
AcDbSpline
210
0.0
220
0.0
230
1.0
 70
     8
 71
     3
 72
     8
 73
     4
 74
     2
 42
0.0000000001
 43
0.0000000001
 44
0.0000000001
 12
0.4544228776284591
 22
-0.8907860844713901
 32
0.0
 13
0.5319693382115878
 23
-0.8467636170754653
 33
0.0
 40
0.0
 40
0.0
 40
0.0
 40
0.0
 40
0.0588539344926554
 40
0.0588539344926554
 40
0.0588539344926554
 40
0.0588539344926554
 10
177.7716744870805
 20
130.1853964861028
 30
0.0
 10
177.7805893451711
 20
130.1679210641487
 30
0.0
 10
177.7902911058393
 20
130.1508250613732
 30
0.0
 10
177.8007272687003
 20
130.1342132712232
 30
0.0
 11
177.7716744870805
 21
130.1853964861028
 31
0.0
 11
177.8007272687003
 21
130.1342132712232
 31
0.0
  0
SPLINE
  5
8B30
330
1F
100
AcDbEntity
  8
0
  6
Continuous
 62
     7
100
AcDbSpline
210
0.0
220
0.0
230
1.0
 70
     8
 71
     3
 72
     8
 73
     4
 74
     2
 42
0.0000000001
 43
0.0000000001
 44
0.0000000001
 12
0.5319693391334998
 22
-0.8467636164962849
 32
0.0
 13
0.5763825317821098
 23
-0.8171800150862999
 33
0.0
 40
0.0
 40
0.0
 40
0.0
 40
0.0
 40
0.0351715206009996
 40
0.0351715206009996
 40
0.0351715206009996
 40
0.0351715206009996
 10
177.8007272687003
 20
130.1342132712232
 30
0.0
 10
177.8069639922238
 20
130.1242859498959
 30
0.0
 10
177.8134686530699
 20
130.114522055762
 30
0.0
 10
177.8202260697668
 20
130.1049415678502
 30
0.0
 11
177.8007272687003
 21
130.1342132712232
 31
0.0
 11
177.8202260697668
 21
130.1049415678502
 31
0.0
  0
SPLINE
  5
8B31
330
1F
100
AcDbEntity
  8
0
  6
Continuous
 62
     7
100
AcDbSpline
210
0.0
220
0.0
230
1.0
 70
     8
 71
     3
 72
     8
 73
     4
 74
     2
 42
0.0000000001
 43
0.0000000001
 44
0.0000000001
 12
0.5763825398924815
 22
-0.8171800093658019
 32
0.0
 13
0.6119050054873505
 23
-0.7909312639284943
 33
0.0
 40
0.0
 40
0.0
 40
0.0
 40
0.0
 40
0.0292103047489097
 40
0.0292103047489097
 40
0.0292103047489097
 40
0.0292103047489097
 10
177.8202260697668
 20
130.1049415678502
 30
0.0
 10
177.8258381729808
 20
130.0969848754808
 30
0.0
 10
177.831627617551
 20
130.0891503687419
 30
0.0
 10
177.8375855947803
 20
130.0814492543236
 30
0.0
 11
177.8202260697668
 21
130.1049415678502
 31
0.0
 11
177.8375855947803
 21
130.0814492543236
 31
0.0
  0
SPLINE
  5
8B32
330
1F
100
AcDbEntity
  8
0
  6
Continuous
 62
     7
100
AcDbSpline
210
0.0
220
0.0
230
1.0
 70
     8
 71
     3
 72
    37
 73
    33
 74
    31
 42
0.0000000001
 43
0.0000000001
 44
0.0000000001
 12
0.992575739025106
 22
0.1216281311981929
 32
0.0
 13
0.9662180048765129
 23
0.2577261473976807
 33
0.0
 40
0.0
 40
0.0
 40
0.0
 40
0.0
 40
0.0156751130166931
 40
0.0318683684655404
 40
0.0473911954222144
 40
0.0623186857648775
 40
0.076657177886955
 40
0.0904135438200335
 40
0.1035950918058465
 40
0.1162094771261628
 40
0.1282646167554084
 40
0.1397686254297363
 40
0.150729746826038
 40
0.1611563054427764
 40
0.1710566592892252
 40
0.1804398544054491
 40
0.1893204405044815
 40
0.1977072627270914
 40
0.2056065667751014
 40
0.2130248443976776
 40
0.2199687235332851
 40
0.2264449365078632
 40
0.2324603094021854
 40
0.238023826955263
 40
0.2431640766997956
 40
0.2479127548436816
 40
0.2523029777472275
 40
0.2563713025656542
 40
0.2601568781267428
 40
0.2637003743267321
 40
0.2670430263082079
 40
0.2702260295977132
 40
0.2702260295977132
 40
0.2702260295977132
 40
0.2702260295977132
 10
178.4403463509821
 20
129.8299885812257
 30
0.0
 10
178.4455325966111
 20
129.8306240927932
 30
0.0
 10
178.4560644251952
 20
129.8320170949292
 30
0.0
 10
178.4716826683787
 20
129.8343939489352
 30
0.0
 10
178.487006091415
 20
129.8370317543972
 30
0.0
 10
178.5016703374632
 20
129.839838462076
 30
0.0
 10
178.5157058154577
 20
129.8427853697589
 30
0.0
 10
178.5291215633614
 20
129.8458414666094
 30
0.0
 10
178.5419278256615
 20
129.8489774669076
 30
0.0
 10
178.5541358197224
 20
129.8521658706419
 30
0.0
 10
178.5657575306196
 20
129.8553809789974
 30
0.0
 10
178.5768055149106
 20
129.8585989022287
 30
0.0
 10
178.5872927323466
 20
129.861797526976
 30
0.0
 10
178.5972323902855
 20
129.8649564788203
 30
0.0
 10
178.6066380252244
 20
129.8680571523887
 30
0.0
 10
178.6155251306984
 20
129.8710832482727
 30
0.0
 10
178.6239092416332
 20
129.8740201944008
 30
0.0
 10
178.6318048440487
 20
129.8768546939575
 30
0.0
 10
178.6392236989039
 20
129.8795739886944
 30
0.0
 10
178.6461766364407
 20
129.8821664274091
 30
0.0
 10
178.6526743547541
 20
129.8846217304044
 30
0.0
 10
178.6587273188791
 20
129.8869309559686
 30
0.0
 10
178.6643463453363
 20
129.8890867171242
 30
0.0
 10
178.6695486200582
 20
129.8910855128802
 30
0.0
 10
178.6743586100547
 20
129.8929280429146
 30
0.0
 10
178.6788078860053
 20
129.8946188831473
 30
0.0
 10
178.6829302054372
 20
129.8961641577703
 30
0.0
 10
178.6867615231892
 20
129.8975709225981
 30
0.0
 10
178.6903402528327
 20
129.8988463216521
 30
0.0
 10
178.6937067677818
 20
129.8999959739004
 30
0.0
 10
178.6969030008052
 20
129.9010210302574
 30
0.0
 10
178.6989922277574
 20
129.90162860156
 30
0.0
 10
178.70001738612
 20
129.901902049285
 30
0.0
 11
178.4403463509821
 21
129.8299885812257
 31
0.0
 11
178.4558861040019
 21
129.832044121099
 31
0.0
 11
178.4718950297352
 21
129.8344804747056
 31
0.0
 11
178.4871928655348
 21
129.8371137951522
 31
0.0
 11
178.501854258615
 21
129.8399197746389
 31
0.0
 11
178.5158868374415
 21
129.8428658037988
 31
0.0
 11
178.5292996689678
 21
129.8459208903988
 31
0.0
 11
178.5421030190281
 21
129.8490557643256
 31
0.0
 11
178.5543081262745
 21
129.8522429376989
 31
0.0
 11
178.5659269888209
 21
129.8554567243454
 31
0.0
 11
178.5769721788207
 21
129.8586732431854
 31
0.0
 11
178.5874566646674
 21
129.8618703885987
 31
0.0
 11
178.5973936619806
 21
129.8650277940187
 31
0.0
 11
178.6067964947541
 21
129.8681267845186
 31
0.0
 11
178.6156791321403
 21
129.8711505410653
 31
0.0
 11
178.6240606410739
 21
129.8740856930987
 31
0.0
 11
178.6319545191139
 21
129.876918620292
 31
0.0
 11
178.6393716281471
 21
129.8796362475719
 31
0.0
 11
178.6463228300602
 21
129.8822269298852
 31
0.0
 11
178.6528188292605
 21
129.8846803870052
 31
0.0
 11
178.6588700913938
 21
129.8869876713584
 31
0.0
 11
178.6644867866203
 21
129.8891411443186
 31
0.0
 11
178.6696806700603
 21
129.8911352111118
 31
0.0
 11
178.6744813403337
 21
129.8929725277318
 31
0.0
 11
178.6789208945734
 21
129.8946578473651
 31
0.0
 11
178.6830324662333
 21
129.8961970145517
 31
0.0
 11
178.6868522841799
 21
129.8975971065784
 31
0.0
 11
178.6904191308266
 21
129.8988652498384
 31
0.0
 11
178.69377371306
 21
129.9000068028851
 31
0.0
 11
178.6969583481267
 21
129.9010223922517
 31
0.0
 11
178.70001738612
 21
129.901902049285
 31
0.0
  0
SPLINE
  5
8B33
330
1F
100
AcDbEntity
  8
0
  6
Continuous
 62
     7
100
AcDbSpline
210
0.0
220
0.0
230
1.0
 70
     8
 71
     3
 72
    13
 73
     9
 74
     7
 42
0.0000000001
 43
0.0000000001
 44
0.0000000001
 12
0.966218004754636
 22
0.2577261478545978
 32
0.0
 13
0.2086477509556742
 23
0.9779908568187838
 33
0.0
 40
0.0
 40
0.0
 40
0.0
 40
0.0
 40
0.1397933470914979
 40
0.2749003286843013
 40
0.4110885416623128
 40
0.5497947021204653
 40
0.689038035078235
 40
0.8259034732890928
 40
0.8259034732890928
 40
0.8259034732890928
 40
0.8259034732890928
 10
178.70001738612
 20
129.901902049285
 30
0.0
 10
178.7450410024216
 20
129.9139115162322
 30
0.0
 10
178.8312991072719
 20
129.9471120503473
 30
0.0
 10
178.947567167214
 20
130.0210913312878
 30
0.0
 10
179.0477932807591
 20
130.1151494325205
 30
0.0
 10
179.1301816587506
 20
130.2268431931335
 30
0.0
 10
179.1918148333554
 20
130.3513606995079
 30
0.0
 10
179.2183638696673
 20
130.4399920564589
 30
0.0
 10
179.2278827582894
 20
130.4846097721871
 30
0.0
 11
178.70001738612
 21
129.901902049285
 31
0.0
 11
178.8305694237188
 21
129.9518855002447
 31
0.0
 11
178.9446792217446
 21
130.0242239441707
 31
0.0
 11
179.0441069434706
 21
130.1172903586634
 31
0.0
 11
179.12658894767
 21
130.2288077023024
 31
0.0
 11
179.188486744456
 21
130.353536883035
 31
0.0
 11
179.2278827582894
 21
130.4846097721871
 31
0.0
  0
SPLINE
  5
8B34
330
1F
100
AcDbEntity
  8
0
  6
Continuous
 62
     7
100
AcDbSpline
210
0.0
220
0.0
230
1.0
 70
     8
 71
     3
 72
     8
 73
     4
 74
     2
 42
0.0000000001
 43
0.0000000001
 44
0.0000000001
 12
-0.981438559374966
 22
-0.1917768342944246
 32
0.0
 13
-0.8999466579878301
 23
-0.4360000146519902
 33
0.0
 40
0.0
 40
0.0
 40
0.0
 40
0.0
 40
0.1700526392215853
 40
0.1700526392215853
 40
0.1700526392215853
 40
0.1700526392215853
 10
188.2333423715116
 20
131.1338250252687
 30
0.0
 10
188.1777102990931
 20
131.1229543063309
 30
0.0
 10
188.1230457281026
 20
131.1047139413798
 30
0.0
 10
188.0720329599861
 20
131.079999623649
 30
0.0
 11
188.2333423715116
 21
131.1338250252687
 31
0.0
 11
188.0720329599861
 21
131.079999623649
 31
0.0
  0
SPLINE
  5
8B35
330
1F
100
AcDbEntity
  8
0
  6
Continuous
 62
     7
100
AcDbSpline
210
0.0
220
0.0
230
1.0
 70
     8
 71
     3
 72
     8
 73
     4
 74
     2
 42
0.0000000001
 43
0.0000000001
 44
0.0000000001
 12
-0.8999466583932512
 22
-0.436000013815161
 32
0.0
 13
-0.8648111304997561
 23
-0.5020973098551053
 33
0.0
 40
0.0
 40
0.0
 40
0.0
 40
0.0
 40
0.0493584714333513
 40
0.0493584714333513
 40
0.0493584714333513
 40
0.0493584714333513
 10
188.0720329599861
 20
131.079999623649
 30
0.0
 10
188.0572262961761
 20
131.0728261922401
 30
0.0
 10
188.0426791346399
 20
131.0650909026777
 30
0.0
 10
188.0284505494799
 20
131.0568299841026
 30
0.0
 11
188.0720329599861
 21
131.079999623649
 31
0.0
 11
188.0284505494799
 21
131.0568299841026
 31
0.0
  0
SPLINE
  5
8B36
330
1F
100
AcDbEntity
  8
0
  6
Continuous
 62
     7
100
AcDbSpline
210
0.0
220
0.0
230
1.0
 70
     8
 71
     3
 72
     8
 73
     4
 74
     2
 42
0.0000000001
 43
0.0000000001
 44
0.0000000001
 12
-0.0868300421463585
 22
-0.9962231395530128
 32
0.0
 13
-0.0002075811376244
 23
-0.9999999784550354
 33
0.0
 40
0.0
 40
0.0
 40
0.0
 40
0.0
 40
0.0571975352971258
 40
0.0571975352971258
 40
0.0571975352971258
 40
0.0571975352971258
 10
187.7020055864223
 20
130.5429361003734
 30
0.0
 10
187.7003500982888
 20
130.5239422643106
 30
0.0
 10
187.6995211357655
 20
130.5048585651488
 30
0.0
 10
187.6995171780557
 20
130.4857927204605
 30
0.0
 11
187.7020055864223
 21
130.5429361003734
 31
0.0
 11
187.6995171780557
 21
130.4857927204605
 31
0.0
  0
SPLINE
  5
8B37
330
1F
100
AcDbEntity
  8
0
  6
Continuous
 62
     7
100
AcDbSpline
210
0.0
220
0.0
230
1.0
 70
     8
 71
     3
 72
     8
 73
     4
 74
     2
 42
0.0000000001
 43
0.0000000001
 44
0.0000000001
 12
0.3416765890852385
 22
-0.9398175931908687
 32
0.0
 13
0.416338279527232
 23
-0.9092097871230294
 33
0.0
 40
0.0
 40
0.0
 40
0.0
 40
0.0
 40
0.0532191647450278
 40
0.0532191647450278
 40
0.0532191647450278
 40
0.0532191647450278
 10
187.7392934231155
 20
130.2598363042022
 30
0.0
 10
187.7453546706768
 20
130.2431642017614
 30
0.0
 10
187.7520921991129
 20
130.2267225102588
 30
0.0
 10
187.7594779242755
 20
130.2105933817759
 30
0.0
 11
187.7392934231155
 21
130.2598363042022
 31
0.0
 11
187.7594779242755
 21
130.2105933817759
 31
0.0
  0
SPLINE
  5
8B38
330
1F
100
AcDbEntity
  8
0
  6
Continuous
 62
     7
100
AcDbSpline
210
0.0
220
0.0
230
1.0
 70
     8
 71
     3
 72
     8
 73
     4
 74
     2
 42
0.0000000001
 43
0.0000000001
 44
0.0000000001
 12
0.4163382404440153
 22
-0.9092098050197114
 32
0.0
 13
0.4249729063295888
 23
-0.905206069845857
 33
0.0
 40
0.0
 40
0.0
 40
0.0
 40
0.0
 40
0.0062550277451115
 40
0.0062550277451115
 40
0.0062550277451115
 40
0.0062550277451115
 10
187.7594779242755
 20
130.2105933817759
 30
0.0
 10
187.7603459933572
 20
130.2086976709237
 30
0.0
 10
187.7612230996419
 20
130.2068060723833
 30
0.0
 10
187.7621091720819
 20
130.204918709356
 30
0.0
 11
187.7594779242755
 21
130.2105933817759
 31
0.0
 11
187.7621091720819
 21
130.204918709356
 31
0.0
  0
SPLINE
  5
8B39
330
1F
100
AcDbEntity
  8
0
  6
Continuous
 62
     7
100
AcDbSpline
210
0.0
220
0.0
230
1.0
 70
     8
 71
     3
 72
     8
 73
     4
 74
     2
 42
0.0000000001
 43
0.0000000001
 44
0.0000000001
 12
0.4249728961593025
 22
-0.9052060746205665
 32
0.0
 13
0.495462474692027
 23
-0.8686293433749822
 33
0.0
 40
0.0
 40
0.0
 40
0.0
 40
0.0
 40
0.0524164724079019
 40
0.0524164724079019
 40
0.0524164724079019
 40
0.0524164724079019
 10
187.7621091720819
 20
130.204918709356
 30
0.0
 10
187.7695343654438
 20
130.189102806278
 30
0.0
 10
187.7775963801104
 20
130.1735707754329
 30
0.0
 10
187.7862531784884
 20
130.158393946763
 30
0.0
 11
187.7621091720819
 21
130.204918709356
 31
0.0
 11
187.7862531784884
 21
130.158393946763
 31
0.0
  0
SPLINE
  5
8B3A
330
1F
100
AcDbEntity
  8
0
  6
Continuous
 62
     7
100
AcDbSpline
210
0.0
220
0.0
230
1.0
 70
     8
 71
     3
 72
    26
 73
    22
 74
    20
 42
0.0000000001
 43
0.0000000001
 44
0.0000000001
 12
0.8687978500727934
 22
0.4951669372129886
 32
0.0
 13
0.4954624772803963
 23
-0.8686293418985872
 33
0.0
 40
0.0
 40
0.0
 40
0.0
 40
0.0
 40
0.1547731033613526
 40
0.3248257428217283
 40
0.4948783825916689
 40
0.664931022590671
 40
0.8349836622519855
 40
1.005036301913428
 40
1.175088941548182
 40
1.345141581381139
 40
1.515194221024817
 40
1.685246860786962
 40
1.855299500400322
 40
2.025352139621907
 40
2.195404779212845
 40
2.365457418850128
 40
2.535510058269369
 40
2.70556269822655
 40
2.875615337930032
 40
3.0456679776495
 40
3.104333940982848
 40
3.104333940982848
 40
3.104333940982848
 40
3.104333940982848
 10
188.6870121313412
 20
129.9117125842316
 30
0.0
 10
188.7318343111577
 20
129.9372587587497
 30
0.0
 10
188.8199328671782
 20
130.0021704480182
 30
0.0
 10
188.9259281954025
 20
130.1309127962714
 30
0.0
 10
188.9977361507059
 20
130.2871639691961
 30
0.0
 10
189.0272579054304
 20
130.4565611885708
 30
0.0
 10
189.0125543561026
 20
130.6278839983314
 30
0.0
 10
188.954595380645
 20
130.7897739188183
 30
0.0
 10
188.8572241149825
 20
130.931500519464
 30
0.0
 10
188.726894561128
 20
131.0436691695641
 30
0.0
 10
188.572245818035
 20
131.118844711554
 30
0.0
 10
188.4035288974295
 20
131.1520440506029
 30
0.0
 10
188.231927341028
 20
131.1410665724394
 30
0.0
 10
188.0688159683599
 20
131.0866398113913
 30
0.0
 10
187.9250065447833
 20
130.9923719235459
 30
0.0
 10
187.8100324167336
 20
130.8645099477996
 30
0.0
 10
187.7315117264482
 20
130.7115352624481
 30
0.0
 10
187.694660555272
 20
130.5435657948048
 30
0.0
 10
187.7018795710108
 20
130.3718181609816
 30
0.0
 10
187.7417190217692
 20
130.2432740534149
 30
0.0
 10
187.7765642506467
 20
130.1753802724704
 30
0.0
 10
187.7862531784884
 20
130.158393946763
 30
0.0
 11
188.6870121313412
 21
129.9117125842316
 31
0.0
 11
188.8115827855939
 21
130.0035649964109
 31
0.0
 11
188.919684859626
 21
130.1348351064033
 31
0.0
 11
188.9906884505789
 21
130.2893549768554
 31
0.0
 11
189.0198870214252
 21
130.4568821204207
 31
0.0
 11
189.0053451184122
 21
130.6263118501394
 31
0.0
 11
188.9480266656124
 21
130.7864133655115
 31
0.0
 11
188.8517310669932
 21
130.9265741943237
 31
0.0
 11
188.7228413628744
 21
131.0375036515761
 31
0.0
 11
188.569901121809
 21
131.1118486777221
 31
0.0
 11
188.4030481247235
 21
131.1446812477353
 31
0.0
 11
188.2333423715116
 21
131.1338250252687
 31
0.0
 11
188.0720329599861
 21
131.079999623649
 31
0.0
 11
187.929812427394
 21
130.9867729089098
 31
0.0
 11
187.8161079896616
 21
130.8603244961576
 31
0.0
 11
187.7384566463621
 21
130.7090361322387
 31
0.0
 11
187.7020055864223
 21
130.5429361003734
 31
0.0
 11
187.7091710009291
 21
130.3730344903013
 31
0.0
 11
187.7594779242755
 21
130.2105933817759
 31
0.0
 11
187.7862531784884
 21
130.158393946763
 31
0.0
  0
SPLINE
  5
8B3B
330
1F
100
AcDbEntity
  8
0
  6
Continuous
 62
     7
100
AcDbSpline
210
0.0
220
0.0
230
1.0
 70
     8
 71
     3
 72
    33
 73
    29
 74
    27
 42
0.0000000001
 43
0.0000000001
 44
0.0000000001
 12
0.8687978500590507
 22
0.4951669372371016
 32
0.0
 13
0.6026063969376767
 23
0.7980385519320427
 33
0.0
 40
0.0
 40
0.0
 40
0.0
 40
0.0
 40
0.1547731033613526
 40
0.3248257428217283
 40
0.4948783825916689
 40
0.664931022590671
 40
0.8349836622519855
 40
1.005036301913428
 40
1.175088941548182
 40
1.345141581381139
 40
1.515194221024817
 40
1.685246860786962
 40
1.855299500400322
 40
2.025352139621907
 40
2.195404779212845
 40
2.365457418850128
 40
2.535510058269369
 40
2.70556269822655
 40
2.875615337930032
 40
3.0456679776495
 40
3.215720617985663
 40
3.385773257433178
 40
3.555825897076588
 40
3.72587853655033
 40
3.895931176633984
 40
4.065983815964225
 40
4.236036455596726
 40
4.406089095466766
 40
4.406089095466766
 40
4.406089095466766
 40
4.406089095466766
 10
188.6870121313412
 20
129.9117125842316
 30
0.0
 10
188.731834311157
 20
129.937258758751
 30
0.0
 10
188.8199328671785
 20
130.0021704480175
 30
0.0
 10
188.9259281954023
 20
130.1309127962718
 30
0.0
 10
188.9977361507061
 20
130.2871639691956
 30
0.0
 10
189.0272579054296
 20
130.4565611885724
 30
0.0
 10
189.0125543561055
 20
130.6278839983258
 30
0.0
 10
188.9545953806343
 20
130.7897739188393
 30
0.0
 10
188.8572241150223
 20
130.9315005193858
 30
0.0
 10
188.7268945609795
 20
131.0436691698558
 30
0.0
 10
188.5722458185892
 20
131.1188447104651
 30
0.0
 10
188.4035288953615
 20
131.1520440546667
 30
0.0
 10
188.2319273487462
 20
131.1410665572731
 30
0.0
 10
188.0688159395553
 20
131.0866398679928
 30
0.0
 10
187.9250066522837
 20
130.9923717123062
 30
0.0
 10
187.8100320155367
 20
130.864510736157
 30
0.0
 10
187.7315132237351
 20
130.7115323202583
 30
0.0
 10
187.6946549673213
 20
130.5435767752067
 30
0.0
 10
187.7019004255268
 20
130.371777181564
 30
0.0
 10
187.7527693362103
 20
130.2075214401954
 30
0.0
 10
187.8438897757286
 20
130.0616973472465
 30
0.0
 10
187.969221864483
 20
129.9439711426258
 30
0.0
 10
188.1204574004462
 20
129.862145813482
 30
0.0
 10
188.2875732956149
 20
129.8216474681406
 30
0.0
 10
188.4594857961507
 20
129.825152196283
 30
0.0
 10
188.6248231443617
 20
129.8724589584111
 30
0.0
 10
188.7725376704063
 20
129.9603152672358
 30
0.0
 10
188.8529571640793
 20
130.0423271440122
 30
0.0
 10
188.8871154336132
 20
130.0875633315036
 30
0.0
 11
188.6870121313412
 21
129.9117125842316
 31
0.0
 11
188.8115827855939
 21
130.0035649964109
 31
0.0
 11
188.919684859626
 21
130.1348351064033
 31
0.0
 11
188.9906884505789
 21
130.2893549768554
 31
0.0
 11
189.0198870214252
 21
130.4568821204207
 31
0.0
 11
189.0053451184122
 21
130.6263118501394
 31
0.0
 11
188.9480266656124
 21
130.7864133655115
 31
0.0
 11
188.8517310669932
 21
130.9265741943237
 31
0.0
 11
188.7228413628744
 21
131.0375036515761
 31
0.0
 11
188.569901121809
 21
131.1118486777221
 31
0.0
 11
188.4030481247235
 21
131.1446812477353
 31
0.0
 11
188.2333423715116
 21
131.1338250252687
 31
0.0
 11
188.0720329599861
 21
131.079999623649
 31
0.0
 11
187.929812427394
 21
130.9867729089098
 31
0.0
 11
187.8161079896616
 21
130.8603244961576
 31
0.0
 11
187.7384566463621
 21
130.7090361322387
 31
0.0
 11
187.7020055864223
 21
130.5429361003734
 31
0.0
 11
187.7091710009291
 21
130.3730344903013
 31
0.0
 11
187.7594779242755
 21
130.2105933817759
 31
0.0
 11
187.8495917174615
 21
130.0663803284037
 31
0.0
 11
187.9735391056673
 21
129.9499546218779
 31
0.0
 11
188.1231041269992
 21
129.8690336441053
 31
0.0
 11
188.2883727296579
 21
129.8289813137457
 31
0.0
 11
188.4583899376699
 21
129.832452535319
 31
0.0
 11
188.621886007255
 21
129.8792172161519
 31
0.0
 11
188.7680234560676
 21
129.9661755182312
 31
0.0
 11
188.8871154336132
 21
130.0875633315036
 31
0.0
  0
SPLINE
  5
8B3C
330
1F
100
AcDbEntity
  8
0
  6
Continuous
 62
     7
100
AcDbSpline
210
0.0
220
0.0
230
1.0
 70
     8
 71
     3
 72
    32
 73
    28
 74
    26
 42
0.0000000001
 43
0.0000000001
 44
0.0000000001
 12
0.2979092434713346
 22
-0.9545941978947583
 32
0.0
 13
0.4164246098552331
 23
-0.9091702504519805
 33
0.0
 40
0.0
 40
0.0
 40
0.0
 40
0.0
 40
0.1414721569300195
 40
0.311766951995018
 40
0.4820617461620272
 40
0.6523565410057478
 40
0.8226513361686071
 40
0.992946131039601
 40
1.163240925278576
 40
1.333535719678046
 40
1.503830514876485
 40
1.674125309224937
 40
1.844420104602593
 40
2.014714898913589
 40
2.185009693741523
 40
2.355304488190812
 40
2.525599282985571
 40
2.695894077393732
 40
2.866188872656367
 40
3.036483667477692
 40
3.206778462586539
 40
3.377073256596294
 40
3.547368051921628
 40
3.717662846654927
 40
3.887957641542313
 40
4.058252435753791
 40
4.222342749070255
 40
4.222342749070255
 40
4.222342749070255
 40
4.222342749070255
 10
187.7294976345621
 20
130.288820940162
 30
0.0
 10
187.7435462556432
 20
130.243804773439
 30
0.0
 10
187.7852860616756
 20
130.1476459826623
 30
0.0
 10
187.8831478341318
 20
130.017940480605
 30
0.0
 10
188.0185638823317
 20
129.9115603228595
 30
0.0
 10
188.1766765687231
 20
129.8433399675612
 30
0.0
 10
188.3469766409171
 20
129.8178122828077
 30
0.0
 10
188.5181430960431
 20
129.8366747699759
 30
0.0
 10
188.6787977672826
 20
129.8986733995004
 30
0.0
 10
188.8182611416254
 20
129.9996868655931
 30
0.0
 10
188.9272624237613
 20
130.1330003061248
 30
0.0
 10
188.9985557749915
 20
130.2897517374427
 30
0.0
 10
189.027401980513
 20
130.4595211384835
 30
0.0
 10
189.011883494774
 20
130.631023119969
 30
0.0
 10
188.953031908996
 20
130.7928571208595
 30
0.0
 10
188.8547593671193
 20
130.934265255734
 30
0.0
 10
188.7235985216766
 20
131.0458474471157
 30
0.0
 10
188.5682682606705
 20
131.1201862906872
 30
0.0
 10
188.399094140259
 20
131.1523401169677
 30
0.0
 10
188.2273219580867
 20
131.1401715450003
 30
0.0
 10
188.0643703093833
 20
131.0844893316001
 30
0.0
 10
187.9210711085013
 20
130.9889954858754
 30
0.0
 10
187.8069511280157
 20
130.86003591977
 30
0.0
 10
187.7295928012639
 20
130.7061907361982
 30
0.0
 10
187.6941521980794
 20
130.5376586325302
 30
0.0
 10
187.7028274875819
 20
130.3678355218973
 30
0.0
 10
187.7367401949273
 20
130.2602365099676
 30
0.0
 10
187.7595172764953
 20
130.2105078328827
 30
0.0
 11
187.7294976345621
 21
130.288820940162
 31
0.0
 11
187.7858648522818
 21
130.1590630581164
 31
0.0
 11
187.8884316821141
 21
130.0231205605508
 31
0.0
 11
188.02234665516
 21
129.9179202900449
 31
0.0
 11
188.1787077995519
 21
129.8504554126988
 31
0.0
 11
188.3471210382039
 21
129.825210644799
 31
0.0
 11
188.5163911323094
 21
129.8438641270922
 31
0.0
 11
188.6752658844083
 21
129.9051758722184
 31
0.0
 11
188.8131841260539
 21
130.0050701944842
 31
0.0
 11
188.9209777687329
 21
130.1369066381166
 31
0.0
 11
188.9914812506189
 21
130.291921398782
 31
0.0
 11
189.0200078653121
 21
130.4598099022206
 31
0.0
 11
189.0046613114653
 21
130.6294117897527
 31
0.0
 11
188.9464617495992
 21
130.7894528099447
 31
0.0
 11
188.8492779832535
 21
130.9292942650836
 31
0.0
 11
188.719570285681
 21
131.0396402225294
 31
0.0
 11
188.5659609510422
 21
131.1131554543822
 31
0.0
 11
188.398661129857
 21
131.1449530505953
 31
0.0
 11
188.2287920470249
 21
131.1329192714287
 31
0.0
 11
188.067645717046
 21
131.0778540594025
 31
0.0
 11
187.925934312214
 21
130.98341786609
 31
0.0
 11
187.8130780702282
 21
130.8558883167308
 31
0.0
 11
187.7365790885222
 21
130.703742916172
 31
0.0
 11
187.7015226223558
 21
130.5370954999135
 31
0.0
 11
187.7102390446822
 21
130.367023924048
 31
0.0
 11
187.7595172764953
 21
130.2105078328827
 31
0.0
  0
SPLINE
  5
8B3D
330
1F
100
AcDbEntity
  8
0
  6
Continuous
 62
     7
100
AcDbSpline
210
0.0
220
0.0
230
1.0
 70
     8
 71
     3
 72
     8
 73
     4
 74
     2
 42
0.0000000001
 43
0.0000000001
 44
0.0000000001
 12
0.981438559374966
 22
0.1917768342944246
 32
0.0
 13
0.8999466579878301
 23
0.4360000146519902
 33
0.0
 40
0.0
 40
0.0
 40
0.0
 40
0.0
 40
0.170052639221765
 40
0.170052639221765
 40
0.170052639221765
 40
0.170052639221765
 10
178.4866795687881
 20
129.8373446879255
 30
0.0
 10
178.5423116412067
 20
129.8482154068633
 30
0.0
 10
178.5969762121973
 20
129.8664557718143
 30
0.0
 10
178.6479889803139
 20
129.8911700895451
 30
0.0
 11
178.4866795687881
 21
129.8373446879255
 31
0.0
 11
178.6479889803139
 21
129.8911700895451
 31
0.0
  0
SPLINE
  5
8B3E
330
1F
100
AcDbEntity
  8
0
  6
Continuous
 62
     7
100
AcDbSpline
210
0.0
220
0.0
230
1.0
 70
     8
 71
     3
 72
     8
 73
     4
 74
     2
 42
0.0000000001
 43
0.0000000001
 44
0.0000000001
 12
0.8999466583932512
 22
0.436000013815161
 32
0.0
 13
0.8648111304997561
 23
0.5020973098551053
 33
0.0
 40
0.0
 40
0.0
 40
0.0
 40
0.0
 40
0.0493584714332306
 40
0.0493584714332306
 40
0.0493584714332306
 40
0.0493584714332306
 10
178.6479889803139
 20
129.8911700895451
 30
0.0
 10
178.6627956441238
 20
129.898343520954
 30
0.0
 10
178.6773428056598
 20
129.9060788105166
 30
0.0
 10
178.6915713908198
 20
129.9143397290917
 30
0.0
 11
178.6479889803139
 21
129.8911700895451
 31
0.0
 11
178.6915713908198
 21
129.9143397290917
 31
0.0
  0
SPLINE
  5
8B3F
330
1F
100
AcDbEntity
  8
0
  6
Continuous
 62
     7
100
AcDbSpline
210
0.0
220
0.0
230
1.0
 70
     8
 71
     3
 72
     8
 73
     4
 74
     2
 42
0.0000000001
 43
0.0000000001
 44
0.0000000001
 12
0.0868300421463585
 22
0.9962231395530128
 32
0.0
 13
0.0002075811376244
 23
0.9999999784550354
 33
0.0
 40
0.0
 40
0.0
 40
0.0
 40
0.0
 40
0.0571975352602978
 40
0.0571975352602978
 40
0.0571975352602978
 40
0.0571975352602978
 10
179.0180163538774
 20
130.428233612821
 30
0.0
 10
179.0196718420098
 20
130.4472274488716
 30
0.0
 10
179.0205008036877
 20
130.4663111480579
 30
0.0
 10
179.0205047613975
 20
130.4853769927339
 30
0.0
 11
179.0180163538774
 21
130.428233612821
 31
0.0
 11
179.0205047613975
 21
130.4853769927339
 31
0.0
  0
SPLINE
  5
8B40
330
1F
100
AcDbEntity
  8
0
  6
Continuous
 62
     7
100
AcDbSpline
210
0.0
220
0.0
230
1.0
 70
     8
 71
     3
 72
     8
 73
     4
 74
     2
 42
0.0000000001
 43
0.0000000001
 44
0.0000000001
 12
-0.3416765890852385
 22
0.9398175931908687
 32
0.0
 13
-0.416338279527232
 23
0.9092097871230294
 33
0.0
 40
0.0
 40
0.0
 40
0.0
 40
0.0
 40
0.0532191644238501
 40
0.0532191644238501
 40
0.0532191644238501
 40
0.0532191644238501
 10
178.9807285163377
 20
130.711333408992
 30
0.0
 10
178.9746672688129
 20
130.7280055113322
 30
0.0
 10
178.9679297411427
 20
130.7444472030328
 30
0.0
 10
178.9605440160247
 20
130.7605763314183
 30
0.0
 11
178.9807285163377
 21
130.711333408992
 31
0.0
 11
178.9605440160247
 21
130.7605763314183
 31
0.0
  0
SPLINE
  5
8B41
330
1F
100
AcDbEntity
  8
0
  6
Continuous
 62
     7
100
AcDbSpline
210
0.0
220
0.0
230
1.0
 70
     8
 71
     3
 72
     8
 73
     4
 74
     2
 42
0.0000000001
 43
0.0000000001
 44
0.0000000001
 12
-0.4163382404440153
 22
0.9092098050197114
 32
0.0
 13
-0.4249729063295888
 23
0.905206069845857
 33
0.0
 40
0.0
 40
0.0
 40
0.0
 40
0.0
 40
0.0062550277453028
 40
0.0062550277453028
 40
0.0062550277453028
 40
0.0062550277453028
 10
178.9605440160247
 20
130.7605763314183
 30
0.0
 10
178.9596759469429
 20
130.7624720422706
 30
0.0
 10
178.9587988406578
 20
130.7643636408109
 30
0.0
 10
178.9579127682178
 20
130.7662510038382
 30
0.0
 11
178.9605440160247
 21
130.7605763314183
 31
0.0
 11
178.9579127682178
 21
130.7662510038382
 31
0.0
  0
SPLINE
  5
8B42
330
1F
100
AcDbEntity
  8
0
  6
Continuous
 62
     7
100
AcDbSpline
210
0.0
220
0.0
230
1.0
 70
     8
 71
     3
 72
     8
 73
     4
 74
     2
 42
0.0000000001
 43
0.0000000001
 44
0.0000000001
 12
-0.4249728961593025
 22
0.9052060746205665
 32
0.0
 13
-0.495462474692027
 23
0.8686293433749822
 33
0.0
 40
0.0
 40
0.0
 40
0.0
 40
0.0
 40
0.0524164724079524
 40
0.0524164724079524
 40
0.0524164724079524
 40
0.0524164724079524
 10
178.9579127682178
 20
130.7662510038382
 30
0.0
 10
178.9504875748559
 20
130.7820669069162
 30
0.0
 10
178.9424255601893
 20
130.7975989377614
 30
0.0
 10
178.9337687618114
 20
130.8127757664313
 30
0.0
 11
178.9579127682178
 21
130.7662510038382
 31
0.0
 11
178.9337687618114
 21
130.8127757664313
 31
0.0
  0
SPLINE
  5
8B43
330
1F
100
AcDbEntity
  8
0
  6
Continuous
 62
     7
100
AcDbSpline
210
0.0
220
0.0
230
1.0
 70
     8
 71
     3
 72
    26
 73
    22
 74
    20
 42
0.0000000001
 43
0.0000000001
 44
0.0000000001
 12
-0.8687978500727934
 22
-0.4951669372129886
 32
0.0
 13
-0.4954624772803963
 23
0.8686293418985872
 33
0.0
 40
0.0
 40
0.0
 40
0.0
 40
0.0
 40
0.1547731026800289
 40
0.3248257421401723
 40
0.4948783819102161
 40
0.6649310219091454
 40
0.8349836615705164
 40
1.005036301231852
 40
1.175088940866606
 40
1.345141580699847
 40
1.51519422034337
 40
1.685246859274897
 40
1.855299499733039
 40
2.025352138954804
 40
2.195404778545994
 40
2.365457418183016
 40
2.535510057602257
 40
2.705562697559494
 40
2.875615337298587
 40
3.045667976767442
 40
3.104333940101049
 40
3.104333940101049
 40
3.104333940101049
 40
3.104333940101049
 10
178.033009808112
 20
131.0594571289626
 30
0.0
 10
177.9881876284929
 20
131.0339109545569
 30
0.0
 10
177.9000890731188
 20
130.9689992648019
 30
0.0
 10
177.7940937448574
 20
130.8402569169776
 30
0.0
 10
177.722285789605
 20
130.6840057439836
 30
0.0
 10
177.6927640348664
 20
130.5146085246274
 30
0.0
 10
177.7074675841979
 20
130.343285714862
 30
0.0
 10
177.7654265596545
 20
130.1813957943759
 30
0.0
 10
177.8627978253178
 20
130.0396691937321
 30
0.0
 10
177.9931273791703
 20
129.9275005436235
 30
0.0
 10
178.1477761220187
 20
129.8523250017876
 30
0.0
 10
178.3164930425674
 20
129.819125662516
 30
0.0
 10
178.4880945990031
 20
129.8301031406895
 30
0.0
 10
178.6512059719415
 20
129.8845299017963
 30
0.0
 10
178.7950153955094
 20
129.9787977896491
 30
0.0
 10
178.9099895235945
 20
130.1066597653973
 30
0.0
 10
178.9885102137452
 20
130.2596344507356
 30
0.0
 10
179.0253613854271
 20
130.427603918441
 30
0.0
 10
179.0181423678091
 20
130.5993515520039
 30
0.0
 10
178.9783029186262
 20
130.7278956598875
 30
0.0
 10
178.9434576896531
 20
130.7957894407238
 30
0.0
 10
178.9337687618114
 20
130.8127757664313
 30
0.0
 11
178.033009808112
 21
131.0594571289626
 31
0.0
 11
177.9084391547058
 21
130.9676047167833
 31
0.0
 11
177.800337080674
 21
130.8363346067911
 31
0.0
 11
177.7293334897211
 21
130.6818147363389
 31
0.0
 11
177.7001349188745
 21
130.5142875927737
 31
0.0
 11
177.7146768218875
 21
130.3448578630549
 31
0.0
 11
177.7719952746873
 21
130.1847563476829
 31
0.0
 11
177.8682908733065
 21
130.0445955188707
 31
0.0
 11
177.9971805774256
 21
129.9336660616181
 31
0.0
 11
178.1501208184907
 21
129.859321035472
 31
0.0
 11
178.3169738147297
 21
129.826488465459
 31
0.0
 11
178.4866795687881
 21
129.8373446879255
 31
0.0
 11
178.6479889803139
 21
129.8911700895451
 31
0.0
 11
178.7902095129062
 21
129.9843968042844
 31
0.0
 11
178.9039139506381
 21
130.1108452170367
 31
0.0
 11
178.9815652939376
 21
130.2621335809555
 31
0.0
 11
179.0180163538774
 21
130.428233612821
 31
0.0
 11
179.0108509385241
 21
130.598135222893
 31
0.0
 11
178.9605440160247
 21
130.7605763314183
 31
0.0
 11
178.9337687618114
 21
130.8127757664313
 31
0.0
  0
SPLINE
  5
8B44
330
1F
100
AcDbEntity
  8
0
  6
Continuous
 62
     7
100
AcDbSpline
210
0.0
220
0.0
230
1.0
 70
     8
 71
     3
 72
    33
 73
    29
 74
    27
 42
0.0000000001
 43
0.0000000001
 44
0.0000000001
 12
-0.8687978500590507
 22
-0.4951669372371016
 32
0.0
 13
-0.6026063969376767
 23
-0.7980385519320427
 33
0.0
 40
0.0
 40
0.0
 40
0.0
 40
0.0
 40
0.1547731026800289
 40
0.3248257421401723
 40
0.4948783819102161
 40
0.6649310219091454
 40
0.8349836615705164
 40
1.005036301231852
 40
1.175088940866606
 40
1.345141580699847
 40
1.51519422034337
 40
1.685246859274897
 40
1.855299499733039
 40
2.025352138954804
 40
2.195404778545994
 40
2.365457418183016
 40
2.535510057602257
 40
2.705562697559494
 40
2.875615337298587
 40
3.045667976767442
 40
3.215720617103556
 40
3.385773256551033
 40
3.555825896194751
 40
3.725878535668727
 40
3.895931175751927
 40
4.065983815315475
 40
4.236036455242508
 40
4.406089094519317
 40
4.406089094519317
 40
4.406089094519317
 40
4.406089094519317
 10
178.033009808112
 20
131.0594571289626
 30
0.0
 10
177.9881876284936
 20
131.0339109545557
 30
0.0
 10
177.9000890731184
 20
130.9689992648026
 30
0.0
 10
177.7940937448576
 20
130.8402569169773
 30
0.0
 10
177.7222857896047
 20
130.684005743984
 30
0.0
 10
177.6927640348672
 20
130.5146085246259
 30
0.0
 10
177.707467584195
 20
130.3432857148677
 30
0.0
 10
177.7654265596651
 20
130.1813957943549
 30
0.0
 10
177.862797825278
 20
130.0396691938103
 30
0.0
 10
177.9931273793187
 20
129.9275005433317
 30
0.0
 10
178.1477761214645
 20
129.8523250028766
 30
0.0
 10
178.3164930446354
 20
129.8191256584522
 30
0.0
 10
178.4880945912849
 20
129.8301031558559
 30
0.0
 10
178.6512060007461
 20
129.8845298451948
 30
0.0
 10
178.7950152880093
 20
129.9787980008889
 30
0.0
 10
178.9099899247903
 20
130.1066589770396
 30
0.0
 10
178.9885087164622
 20
130.2596373929264
 30
0.0
 10
179.0253669733634
 20
130.4275929380354
 30
0.0
 10
179.018121513347
 20
130.5993925314354
 30
0.0
 10
178.9672526044178
 20
130.7636482731635
 30
0.0
 10
178.8761321644711
 20
130.9094723659246
 30
0.0
 10
178.7508000758468
 20
131.0271985705675
 30
0.0
 10
178.5995645398355
 20
131.1090238997391
 30
0.0
 10
178.4324486447287
 20
131.1495222449478
 30
0.0
 10
178.2605361439143
 20
131.1460175173067
 30
0.0
 10
178.0951987962753
 20
131.0987107532212
 30
0.0
 10
177.9474842688288
 20
131.0108544468057
 30
0.0
 10
177.8670647761017
 20
130.9288425690243
 30
0.0
 10
177.8329065066869
 20
130.8836063816908
 30
0.0
 11
178.033009808112
 21
131.0594571289626
 31
0.0
 11
177.9084391547058
 21
130.9676047167833
 31
0.0
 11
177.800337080674
 21
130.8363346067911
 31
0.0
 11
177.7293334897211
 21
130.6818147363389
 31
0.0
 11
177.7001349188745
 21
130.5142875927737
 31
0.0
 11
177.7146768218875
 21
130.3448578630549
 31
0.0
 11
177.7719952746873
 21
130.1847563476829
 31
0.0
 11
177.8682908733065
 21
130.0445955188707
 31
0.0
 11
177.9971805774256
 21
129.9336660616181
 31
0.0
 11
178.1501208184907
 21
129.859321035472
 31
0.0
 11
178.3169738147297
 21
129.826488465459
 31
0.0
 11
178.4866795687881
 21
129.8373446879255
 31
0.0
 11
178.6479889803139
 21
129.8911700895451
 31
0.0
 11
178.7902095129062
 21
129.9843968042844
 31
0.0
 11
178.9039139506381
 21
130.1108452170367
 31
0.0
 11
178.9815652939376
 21
130.2621335809555
 31
0.0
 11
179.0180163538774
 21
130.428233612821
 31
0.0
 11
179.0108509385241
 21
130.598135222893
 31
0.0
 11
178.9605440160247
 21
130.7605763314183
 31
0.0
 11
178.8704302228387
 21
130.9047893847905
 31
0.0
 11
178.7464828346329
 21
131.0212150913162
 31
0.0
 11
178.5969178133008
 21
131.1021360690891
 31
0.0
 11
178.4316492106419
 21
131.1421883994488
 31
0.0
 11
178.2616320026303
 21
131.1387171778754
 31
0.0
 11
178.0981359330447
 21
131.0919524961957
 31
0.0
 11
177.9519984833856
 21
131.004994194963
 31
0.0
 11
177.8329065066869
 21
130.8836063816908
 31
0.0
  0
SPLINE
  5
8B45
330
1F
100
AcDbEntity
  8
0
  6
Continuous
 62
     7
100
AcDbSpline
210
0.0
220
0.0
230
1.0
 70
     8
 71
     3
 72
    32
 73
    28
 74
    26
 42
0.0000000001
 43
0.0000000001
 44
0.0000000001
 12
-0.2979092434713346
 22
0.9545941978947583
 32
0.0
 13
-0.4164246098552331
 23
0.9091702504519805
 33
0.0
 40
0.0
 40
0.0
 40
0.0
 40
0.0
 40
0.1414721569300716
 40
0.3117669519952071
 40
0.4820617461618236
 40
0.6523565410059842
 40
0.8226513361686102
 40
0.9929461310396041
 40
1.163240925278517
 40
1.333535720363845
 40
1.503830515562151
 40
1.674125309560296
 40
1.844420104937951
 40
2.014714899172548
 40
2.185009694289891
 40
2.355304489434314
 40
2.525599283680558
 40
2.695894078088719
 40
2.866188873351343
 40
3.036483668172664
 40
3.206778462480512
 40
3.377073257194915
 40
3.547368051885911
 40
3.71766284737581
 40
3.887957641260515
 40
4.058252436273955
 40
4.222342749590581
 40
4.222342749590581
 40
4.222342749590581
 40
4.222342749590581
 10
178.9905243057379
 20
130.6823487730322
 30
0.0
 10
178.9764756846568
 20
130.7273649397553
 30
0.0
 10
178.9347358786244
 20
130.8235237305321
 30
0.0
 10
178.8368741061677
 20
130.9532292325892
 30
0.0
 10
178.701458057969
 20
131.0596093903342
 30
0.0
 10
178.5433453715748
 20
131.1278297456359
 30
0.0
 10
178.3730452993898
 20
131.1533574303755
 30
0.0
 10
178.2018788442302
 20
131.1344949432595
 30
0.0
 10
178.0412241729011
 20
131.0724963134567
 30
0.0
 10
177.9017607979432
 20
130.9714828478791
 30
0.0
 10
177.7927595155549
 20
130.8381694072515
 30
0.0
 10
177.7214661654245
 20
130.6814179755136
 30
0.0
 10
177.6926199601177
 20
130.5116485748295
 30
0.0
 10
177.7081384440837
 20
130.3401465929276
 30
0.0
 10
177.7669900318928
 20
130.1783125924688
 30
0.0
 10
177.8652625725065
 20
130.0369044566071
 30
0.0
 10
177.9964234189937
 20
129.9253222662011
 30
0.0
 10
178.1517536795784
 20
129.8509834224429
 30
0.0
 10
178.3209278000406
 20
129.818829596281
 30
0.0
 10
178.4926999819954
 20
129.8309981680217
 30
0.0
 10
178.6556516304306
 20
129.8866803820204
 30
0.0
 10
178.7989508314081
 20
129.9821742270083
 30
0.0
 10
178.9130708127036
 20
130.1111337928149
 30
0.0
 10
178.9904291390062
 20
130.2649789764909
 30
0.0
 10
179.0258697408985
 20
130.4335110804223
 30
0.0
 10
179.0171944531554
 20
130.6033341910479
 30
0.0
 10
178.9832817453724
 20
130.7109332032267
 30
0.0
 10
178.9605046638044
 20
130.7606618803116
 30
0.0
 11
178.9905243057379
 21
130.6823487730322
 31
0.0
 11
178.9341570880181
 21
130.8121066550779
 31
0.0
 11
178.8315902581856
 21
130.9480491526435
 31
0.0
 11
178.6976752851402
 21
131.0532494231493
 31
0.0
 11
178.5413141407478
 21
131.1207143004955
 31
0.0
 11
178.3729009020961
 21
131.1459590683953
 31
0.0
 11
178.2036308079906
 21
131.127305586102
 31
0.0
 11
178.0447560558917
 21
131.065993840976
 31
0.0
 11
177.9068378133994
 21
130.96609951871
 31
0.0
 11
177.7990441707203
 21
130.8342630750778
 31
0.0
 11
177.7285406896809
 21
130.6792483144122
 31
0.0
 11
177.7000140749877
 21
130.5113598109736
 31
0.0
 11
177.7153606279879
 21
130.3417579234416
 31
0.0
 11
177.7735601907005
 21
130.1817169032496
 31
0.0
 11
177.8707439570463
 21
130.0418754472641
 31
0.0
 11
178.0004516546188
 21
129.9315294906648
 31
0.0
 11
178.1540609892575
 21
129.8580142588121
 31
0.0
 11
178.3213608104427
 21
129.826216662599
 31
0.0
 11
178.4912298932748
 21
129.8382504417655
 31
0.0
 11
178.6523762224072
 21
129.8933156537918
 31
0.0
 11
178.794087628086
 21
129.9877518471044
 31
0.0
 11
178.9069438700715
 21
130.1152813956167
 31
0.0
 11
178.983442851778
 21
130.2674267970222
 31
0.0
 11
179.0184993170974
 21
130.4340742124343
 31
0.0
 11
179.0097828956175
 21
130.6041457891461
 31
0.0
 11
178.9605046638044
 21
130.7606618803116
 31
0.0
  0
SPLINE
  5
8B46
330
1F
100
AcDbEntity
  8
0
  6
Continuous
 62
     7
100
AcDbSpline
210
0.0
220
0.0
230
1.0
 70
     8
 71
     3
 72
    15
 73
    11
 74
     9
 42
0.0000000001
 43
0.0000000001
 44
0.0000000001
 12
0.9509075425846445
 22
-0.3094751128210999
 32
0.0
 13
0.707179621832657
 23
0.7070339330361879
 33
0.0
 40
0.0
 40
0.0
 40
0.0
 40
0.0
 40
0.1293034493975129
 40
0.2439395737225438
 40
0.3492035052143954
 40
0.4478844080428472
 40
0.5426770340773714
 40
0.6370463980807151
 40
0.7318640267720458
 40
0.826908838186674
 40
0.826908838186674
 40
0.826908838186674
 40
0.826908838186674
 10
187.9255037280273
 20
129.734149581473
 30
0.0
 10
187.9664889364654
 20
129.7208108482762
 30
0.0
 10
188.0458785130264
 20
129.7015016713196
 30
0.0
 10
188.1621693726751
 20
129.6909762099747
 30
0.0
 10
188.2685659827384
 20
129.6960486899441
 30
0.0
 10
188.3668174871597
 20
129.7138823471774
 30
0.0
 10
188.4584846692729
 20
129.7430954099799
 30
0.0
 10
188.544437339222
 20
129.7834121935684
 30
0.0
 10
188.6242880058847
 20
129.8349255159189
 30
0.0
 10
188.6723633977966
 20
129.8764756542553
 30
0.0
 10
188.6947679823944
 20
129.8988756231984
 30
0.0
 11
187.9255037280273
 21
129.734149581473
 31
0.0
 11
188.0511707825929
 21
129.7037000589332
 31
0.0
 11
188.1653474257987
 21
129.6934465158134
 31
0.0
 11
188.2704884499579
 21
129.6985318193332
 31
0.0
 11
188.3675715078437
 21
129.71621798496
 31
0.0
 11
188.4578693722897
 21
129.7450613139462
 31
0.0
 11
188.5432784411624
 21
129.7851969317527
 31
0.0
 11
188.6229114255751
 21
129.8366650821388
 31
0.0
 11
188.6947679823944
 21
129.8988756231984
 31
0.0
  0
SPLINE
  5
8B47
330
1F
100
AcDbEntity
  8
0
  6
Continuous
 62
     7
100
AcDbSpline
210
0.0
220
0.0
230
1.0
 70
     8
 71
     3
 72
    11
 73
     7
 74
     5
 42
0.0000000001
 43
0.0000000001
 44
0.0000000001
 12
-0.8641220195457124
 22
-0.5032823614396193
 32
0.0
 13
-0.0038267695118271
 23
-0.999992677890745
 33
0.0
 40
0.0
 40
0.0
 40
0.0
 40
0.0
 40
0.1715790005314874
 40
0.3478111188209954
 40
0.5240432360824209
 40
0.7002753543410259
 40
0.7002753543410259
 40
0.7002753543410259
 40
0.7002753543410259
 10
188.02006918956
 20
131.0693052076492
 30
0.0
 10
187.9706474587431
 20
131.0405209794622
 30
0.0
 10
187.8774894050468
 20
130.9690584388719
 30
0.0
 10
187.7695222365387
 20
130.8292678550024
 30
0.0
 10
187.7006974277566
 20
130.6649150673429
 30
0.0
 10
187.6847483156214
 20
130.5469133752031
 30
0.0
 10
187.6845235157223
 20
130.4881697659139
 30
0.0
 11
188.02006918956
 21
131.0693052076492
 31
0.0
 11
187.8839677235545
 21
130.96482676789
 31
0.0
 11
187.7762057411285
 21
130.8253810269711
 31
0.0
 11
187.7081809512625
 21
130.6628067758791
 31
0.0
 11
187.6845235157223
 21
130.4881697659139
 31
0.0
  0
SPLINE
  5
8B48
330
1F
100
AcDbEntity
  8
0
  6
Continuous
 62
     7
100
AcDbSpline
210
0.0
220
0.0
230
1.0
 70
     8
 71
     3
 72
     8
 73
     4
 74
     2
 42
0.0000000001
 43
0.0000000001
 44
0.0000000001
 12
-0.0038266950249794
 22
-0.9999926781757883
 32
0.0
 13
0.0027633727465059
 23
-0.9999961818782431
 33
0.0
 40
0.0
 40
0.0
 40
0.0
 40
0.0
 40
0.0044279225113843
 40
0.0044279225113843
 40
0.0044279225113843
 40
0.0044279225113843
 10
187.6845235157223
 20
130.4881697659139
 30
0.0
 10
187.6845178676193
 20
130.4866938025502
 30
0.0
 10
187.6845170850159
 20
130.4852178125622
 30
0.0
 10
187.6845211636826
 20
130.4837418440272
 30
0.0
 11
187.6845235157223
 21
130.4881697659139
 31
0.0
 11
187.6845211636826
 21
130.4837418440272
 31
0.0
  0
SPLINE
  5
8B49
330
1F
100
AcDbEntity
  8
0
  6
Continuous
 62
     7
100
AcDbSpline
210
0.0
220
0.0
230
1.0
 70
     8
 71
     3
 72
     9
 73
     5
 74
     3
 42
0.0000000001
 43
0.0000000001
 44
0.0000000001
 12
0.0027633857001411
 22
-0.999996181842447
 32
0.0
 13
0.4157009301811063
 23
-0.9095013670394141
 33
0.0
 40
0.0
 40
0.0
 40
0.0
 40
0.0
 40
0.1718410734305451
 40
0.2872130289212813
 40
0.2872130289212813
 40
0.2872130289212813
 40
0.2872130289212813
 10
187.6845211636826
 20
130.4837418440272
 30
0.0
 10
187.6846794514043
 20
130.4264617049224
 30
0.0
 10
187.6972631722297
 20
130.3302447191593
 30
0.0
 10
187.7296989769707
 20
130.2396968525883
 30
0.0
 10
187.7456857200421
 20
130.2047198688427
 30
0.0
 11
187.6845211636826
 21
130.4837418440272
 31
0.0
 11
187.7068436996827
 21
130.3133568126885
 31
0.0
 11
187.7456857200421
 21
130.2047198688427
 31
0.0
  0
SPLINE
  5
8B4A
330
1F
100
AcDbEntity
  8
0
  6
Continuous
 62
     7
100
AcDbSpline
210
0.0
220
0.0
230
1.0
 70
     8
 71
     3
 72
     8
 73
     4
 74
     2
 42
0.0000000001
 43
0.0000000001
 44
0.0000000001
 12
0.4157009978941925
 22
-0.9095013360901525
 32
0.0
 13
0.424261678665031
 23
-0.9055396335977404
 33
0.0
 40
0.0
 40
0.0
 40
0.0
 40
0.0
 40
0.0063838865672456
 40
0.0063838865672456
 40
0.0063838865672456
 40
0.0063838865672456
 10
187.7456857200421
 20
130.2047198688427
 30
0.0
 10
187.7465703160476
 20
130.2027844843886
 30
0.0
 10
187.7474640482581
 20
130.2008532497371
 30
0.0
 10
187.7483668610685
 20
130.1989262956361
 30
0.0
 11
187.7456857200421
 21
130.2047198688427
 31
0.0
 11
187.7483668610685
 21
130.1989262956361
 31
0.0
  0
SPLINE
  5
8B4B
330
1F
100
AcDbEntity
  8
0
  6
Continuous
 62
     7
100
AcDbSpline
210
0.0
220
0.0
230
1.0
 70
     8
 71
     3
 72
     8
 73
     4
 74
     2
 42
0.0000000001
 43
0.0000000001
 44
0.0000000001
 12
0.42426172233637
 22
-0.9055396131369279
 32
0.0
 13
0.4964046117914593
 23
-0.8680912748047701
 33
0.0
 40
0.0
 40
0.0
 40
0.0
 40
0.0
 40
0.0548232695581006
 40
0.0548232695581006
 40
0.0548232695581006
 40
0.0548232695581006
 10
187.7483668610685
 20
130.1989262956361
 30
0.0
 10
187.7561199993241
 20
130.1823780815339
 30
0.0
 10
187.7645507517679
 20
130.1661305726964
 30
0.0
 10
187.7736222597153
 20
130.1502667053765
 30
0.0
 11
187.7483668610685
 21
130.1989262956361
 31
0.0
 11
187.7736222597153
 21
130.1502667053765
 31
0.0
  0
SPLINE
  5
8B4C
330
1F
100
AcDbEntity
  8
0
  6
Continuous
 62
     7
100
AcDbSpline
210
0.0
220
0.0
230
1.0
 70
     8
 71
     3
 72
    13
 73
     9
 74
     7
 42
0.0000000001
 43
0.0000000001
 44
0.0000000001
 12
0.496404605748758
 22
-0.8680912782601955
 32
0.0
 13
0.8685652624117752
 23
0.4955748025591739
 33
0.0
 40
0.0
 40
0.0
 40
0.0
 40
0.0
 40
0.1762321178271075
 40
0.3524642355213595
 40
0.5286963532839616
 40
0.7049284704195328
 40
0.88116058876481
 40
1.057392705985882
 40
1.057392705985882
 40
1.057392705985882
 40
1.057392705985882
 10
187.7736222597153
 20
130.1502667053765
 30
0.0
 10
187.802783071372
 20
130.0992715172315
 30
0.0
 10
187.8748475627617
 20
130.0044760101408
 30
0.0
 10
188.0157420722961
 20
129.8954285382742
 30
0.0
 10
188.1801227954797
 20
129.8264396611824
 30
0.0
 10
188.3567599877853
 20
129.8023608995515
 30
0.0
 10
188.533516277246
 20
129.8247178493733
 30
0.0
 10
188.6437449506812
 20
129.8697635576329
 30
0.0
 10
188.6947679823944
 20
129.8988756231984
 30
0.0
 11
187.7736222597153
 21
130.1502667053765
 31
0.0
 11
187.8803138582012
 21
130.0100003082375
 31
0.0
 11
188.0196564412529
 21
129.9021049707318
 31
0.0
 11
188.1821655404984
 21
129.8339246803722
 31
0.0
 11
188.3567798369371
 21
129.8101001847991
 31
0.0
 11
188.5316140643557
 21
129.8322531182256
 31
0.0
 11
188.6947679823944
 21
129.8988756231984
 31
0.0
  0
SPLINE
  5
8B4D
330
1F
100
AcDbEntity
  8
0
  6
Continuous
 62
     7
100
AcDbSpline
210
0.0
220
0.0
230
1.0
 70
     8
 71
     3
 72
    15
 73
    11
 74
     9
 42
0.0000000001
 43
0.0000000001
 44
0.0000000001
 12
-0.9509075425846445
 22
0.3094751128210999
 32
0.0
 13
-0.707179621832657
 23
-0.7070339330361879
 33
0.0
 40
0.0
 40
0.0
 40
0.0
 40
0.0
 40
0.129303448574613
 40
0.2439395728241394
 40
0.3492035043159964
 40
0.4478844069926499
 40
0.5426770330272606
 40
0.6370463970303501
 40
0.7318640257216808
 40
0.8269088371365555
 40
0.8269088371365555
 40
0.8269088371365555
 40
0.8269088371365555
 10
178.7945182114259
 20
131.2370201317211
 30
0.0
 10
178.7535330032486
 20
131.2503588648331
 30
0.0
 10
178.6741434270848
 20
131.2696680423284
 30
0.0
 10
178.5578525675518
 20
131.2801935021672
 30
0.0
 10
178.4514559576777
 20
131.2751210221579
 30
0.0
 10
178.3532044530375
 20
131.2572873662702
 30
0.0
 10
178.2615372710412
 20
131.2280743031438
 30
0.0
 10
178.1755846010741
 20
131.1877575196449
 30
0.0
 10
178.0957339344163
 20
131.1362441972697
 30
0.0
 10
178.0476585425032
 20
131.0946940589389
 30
0.0
 10
178.0252539579054
 20
131.0722940899958
 30
0.0
 11
178.7945182114259
 21
131.2370201317211
 31
0.0
 11
178.668851157707
 21
131.267469654261
 31
0.0
 11
178.554674514501
 21
131.2777231965342
 31
0.0
 11
178.4495334903418
 21
131.2726378930142
 31
0.0
 11
178.352450432456
 21
131.2549517282344
 31
0.0
 11
178.26215256801
 21
131.2261083992479
 31
0.0
 11
178.1767434991376
 21
131.1859727814416
 31
0.0
 11
178.0971105147249
 21
131.1345046310554
 31
0.0
 11
178.0252539579054
 21
131.0722940899958
 31
0.0
  0
SPLINE
  5
8B4E
330
1F
100
AcDbEntity
  8
0
  6
Continuous
 62
     7
100
AcDbSpline
210
0.0
220
0.0
230
1.0
 70
     8
 71
     3
 72
    38
 73
    34
 74
    32
 42
0.0000000001
 43
0.0000000001
 44
0.0000000001
 12
0.7071796223564749
 22
0.7070339325122618
 32
0.0
 13
0.6026063967648686
 23
0.7980385520625317
 33
0.0
 40
0.0
 40
0.0
 40
0.0
 40
0.0
 40
0.0026144536040636
 40
0.005305646591029
 40
0.0081286867614291
 40
0.0111395706954969
 40
0.0143952082649027
 40
0.0179533266446226
 40
0.0218720097004308
 40
0.0262086109482741
 40
0.0310178641755178
 40
0.0363491944896478
 40
0.042243784450246
 40
0.0487329436939145
 40
0.0558502717348242
 40
0.0635952852339364
 40
0.071888348260941
 40
0.0806245841048118
 40
0.0897023719568666
 40
0.0990197962776441
 40
0.1084717309834641
 40
0.1179937222263618
 40
0.1276610529801988
 40
0.1376494865698451
 40
0.1481301960486758
 40
0.1592742142606811
 40
0.1712528511501443
 40
0.1842375547547649
 40
0.1983997012078886
 40
0.2139102763106116
 40
0.2309394239152128
 40
0.2496558126035424
 40
0.2702257909934473
 40
0.2702257909934473
 40
0.2702257909934473
 40
0.2702257909934473
 10
188.6947679823944
 20
129.8988756231984
 30
0.0
 10
188.6953842784985
 20
129.8994917923361
 30
0.0
 10
188.6966581334555
 20
129.9007190814307
 30
0.0
 10
188.6986547778001
 20
129.9025510011565
 30
0.0
 10
188.7007821955494
 20
129.9044351585185
 30
0.0
 10
188.7030767313637
 20
129.906413920804
 30
0.0
 10
188.7055784191038
 20
129.9085273739314
 30
0.0
 10
188.708329304488
 20
129.9108145525502
 30
0.0
 10
188.7113722177843
 20
129.9133139700291
 30
0.0
 10
188.7147492790238
 20
129.9160635546749
 30
0.0
 10
188.7184999484027
 20
129.9191000266474
 30
0.0
 10
188.7226586582148
 20
129.9224578199581
 30
0.0
 10
188.7272525732561
 20
129.9261679799257
 30
0.0
 10
188.7323032781332
 20
129.9302600595981
 30
0.0
 10
188.7378199000502
 20
129.9347568551963
 30
0.0
 10
188.7437812305656
 20
129.9396596904584
 30
0.0
 10
188.7501293098545
 20
129.9449416488147
 30
0.0
 10
188.7567802691354
 20
129.9505538903338
 30
0.0
 10
188.7636456124711
 20
129.9564411307655
 30
0.0
 10
188.7706385713253
 20
129.9625455202511
 30
0.0
 10
188.7776839716098
 20
129.9688143758721
 30
0.0
 10
188.7847527863525
 20
129.9752316851013
 30
0.0
 10
188.7918854429989
 20
129.9818439670634
 30
0.0
 10
188.799177161418
 20
129.9887538875501
 30
0.0
 10
188.8067411415723
 20
129.9960911299401
 30
0.0
 10
188.8146828924868
 20
130.0039905478683
 30
0.0
 10
188.8231001302106
 20
130.0125940344532
 30
0.0
 10
188.8320812427632
 20
130.0220514461655
 30
0.0
 10
188.8417032461179
 20
130.0325214438629
 30
0.0
 10
188.8520293553852
 20
130.0441722223123
 30
0.0
 10
188.8631061919152
 20
130.0571820896471
 30
0.0
 10
188.8749604667803
 20
130.0717394277501
 30
0.0
 10
188.8829835667602
 20
130.0820914529135
 30
0.0
 10
188.8871154336132
 20
130.0875633315036
 30
0.0
 11
188.6947679823944
 21
129.8988756231984
 31
0.0
 11
188.6966468398678
 21
129.9006936612184
 31
0.0
 11
188.6986275377945
 21
129.902515571045
 31
0.0
 11
188.7007392667013
 21
129.9043891122983
 31
0.0
 11
188.7030181259145
 21
129.9063569087184
 31
0.0
 11
188.7055040120613
 21
129.9084591803584
 31
0.0
 11
188.708239030721
 21
129.910735115185
 31
0.0
 11
188.7112662611412
 21
129.9132234786783
 31
0.0
 11
188.7146283033547
 21
129.9159625994383
 31
0.0
 11
188.7183653181476
 21
129.9189897494249
 31
0.0
 11
188.7225125090741
 21
129.9223399569316
 31
0.0
 11
188.7270974732344
 21
129.9260445884182
 31
0.0
 11
188.7321386518743
 21
129.9301306263048
 31
0.0
 11
188.7376545785274
 21
129.9346285048714
 31
0.0
 11
188.7436356011943
 21
129.9395491351115
 31
0.0
 11
188.7500097777607
 21
129.944854299338
 31
0.0
 11
188.7566859010606
 21
129.950489119158
 31
0.0
 11
188.7635763707272
 21
129.9563990819379
 31
0.0
 11
188.7705951298672
 21
129.9625270029645
 31
0.0
 11
188.7776560496207
 21
129.9688105116912
 31
0.0
 11
188.7847058120006
 21
129.9752112278712
 31
0.0
 11
188.791795067147
 21
129.9817838791911
 31
0.0
 11
188.7990449417339
 21
129.9886546960311
 31
0.0
 11
188.8065675564404
 21
129.9959523353177
 31
0.0
 11
188.8144683407402
 21
130.0038115178043
 31
0.0
 11
188.8228450753202
 21
130.0123741143442
 31
0.0
 11
188.8317862351535
 21
130.0217899620774
 31
0.0
 11
188.8413689583468
 21
130.032217704324
 31
0.0
 11
188.8516566263666
 21
130.0438255390373
 31
0.0
 11
188.8626960531063
 21
130.0567917615172
 31
0.0
 11
188.8745143251265
 21
130.0713049159637
 31
0.0
 11
188.8871154336132
 21
130.0875633315036
 31
0.0
  0
SPLINE
  5
8B4F
330
1F
100
AcDbEntity
  8
0
  6
Continuous
 62
     7
100
AcDbSpline
210
0.0
220
0.0
230
1.0
 70
     8
 71
     3
 72
    38
 73
    34
 74
    32
 42
0.0000000001
 43
0.0000000001
 44
0.0000000001
 12
-0.7071796223564749
 22
-0.7070339325122618
 32
0.0
 13
-0.6026063967648686
 23
-0.7980385520625317
 33
0.0
 40
0.0
 40
0.0
 40
0.0
 40
0.0
 40
0.0026144536038212
 40
0.0053056465909539
 40
0.0081286867611839
 40
0.0111395706950425
 40
0.014395208264722
 40
0.0179533266446895
 40
0.0218720096999707
 40
0.0262086114825311
 40
0.0310178641774739
 40
0.0363491951500619
 40
0.0422437851104118
 40
0.0487329448873197
 40
0.0558502717371836
 40
0.0635952852362235
 40
0.0718883482632281
 40
0.0806245841070989
 40
0.0897023726016594
 40
0.0990197962848766
 40
0.1084717316229191
 40
0.1179937228657786
 40
0.1276610529987612
 40
0.1376494865885725
 40
0.1481301966749547
 40
0.1592742148841214
 40
0.1712528517603282
 40
0.1842375547818497
 40
0.1983997012351408
 40
0.2139102763377787
 40
0.2309394239422933
 40
0.2496558126307112
 40
0.2702257910202477
 40
0.2702257910202477
 40
0.2702257910202477
 40
0.2702257910202477
 10
178.0252539579054
 20
131.0722940899958
 30
0.0
 10
178.0246376618013
 20
131.0716779208581
 30
0.0
 10
178.0233638068443
 20
131.0704506317634
 30
0.0
 10
178.0213671624998
 20
131.0686187120377
 30
0.0
 10
178.01923974475
 20
131.0667345546763
 30
0.0
 10
178.0169452089385
 20
131.0647557923876
 30
0.0
 10
178.0144435211872
 20
131.0626423392736
 30
0.0
 10
178.0116926358486
 20
131.0603551605989
 30
0.0
 10
178.008649722218
 20
131.0578557432485
 30
0.0
 10
178.0052726618349
 20
131.0551061575496
 30
0.0
 10
178.0015219914643
 20
131.0520696864495
 30
0.0
 10
177.9973632813737
 20
131.0487118934184
 30
0.0
 10
177.9927693659385
 20
131.0450017333051
 30
0.0
 10
177.9877186619547
 20
131.0409096528795
 30
0.0
 10
177.9822020398595
 20
131.0364128578482
 30
0.0
 10
177.9762407097685
 20
131.0315100226941
 30
0.0
 10
177.9698926303963
 20
131.0262280644368
 30
0.0
 10
177.9632416711704
 20
131.0206158225251
 30
0.0
 10
177.9563763270054
 20
131.0147285830531
 30
0.0
 10
177.9493833689571
 20
131.008624192321
 30
0.0
 10
177.9423379678476
 20
131.0023553376369
 30
0.0
 10
177.9352691531791
 20
130.9959380283115
 30
0.0
 10
177.9281364972257
 20
130.9893257459047
 30
0.0
 10
177.9208447789289
 20
130.9824158253093
 30
0.0
 10
177.9132807975107
 20
130.9750785839159
 30
0.0
 10
177.905339048518
 20
130.967179163784
 30
0.0
 10
177.8969218087683
 20
130.9585756794698
 30
0.0
 10
177.887940697724
 20
130.9491182665778
 30
0.0
 10
177.8783186940842
 20
130.9386482694254
 30
0.0
 10
177.8679925849445
 20
130.9269974908529
 30
0.0
 10
177.8569157483752
 20
130.9139876235562
 30
0.0
 10
177.8450614735226
 20
130.8994302854414
 30
0.0
 10
177.8370383735399
 20
130.8890782602808
 30
0.0
 10
177.8329065066869
 20
130.8836063816908
 30
0.0
 11
178.0252539579054
 21
131.0722940899958
 31
0.0
 11
178.0233751004321
 21
131.0704760519759
 31
0.0
 11
178.0213944025052
 21
131.0686541421492
 31
0.0
 11
178.0192826735986
 21
131.0667806008959
 31
0.0
 11
178.0170038143856
 21
131.0648128044759
 31
0.0
 11
178.0145179282384
 21
131.062710532836
 31
0.0
 11
178.0117829095785
 21
131.0604345980092
 31
0.0
 11
178.0087556791589
 21
131.057946234516
 31
0.0
 11
178.0053936369455
 21
131.0552071129094
 31
0.0
 11
178.0016566221519
 21
131.0521799637693
 31
0.0
 11
177.9975094303789
 21
131.0488297562627
 31
0.0
 11
177.9929244662188
 21
131.0451251247762
 31
0.0
 11
177.9878832875789
 21
131.0410390860428
 31
0.0
 11
177.9823673617723
 21
131.0365412083227
 31
0.0
 11
177.9763863391054
 21
131.0316205780828
 31
0.0
 11
177.970012162539
 21
131.0263154138562
 31
0.0
 11
177.9633360392391
 21
131.0206805940363
 31
0.0
 11
177.956445568726
 21
131.0147706312563
 31
0.0
 11
177.9494268104325
 21
131.0086427102296
 31
0.0
 11
177.9423658898325
 21
131.0023592015032
 31
0.0
 11
177.9353161274526
 21
130.9959584853232
 31
0.0
 11
177.9282268731529
 21
130.9893858340032
 31
0.0
 11
177.9209769985658
 21
130.9825150171632
 31
0.0
 11
177.9134543830128
 21
130.9752173778766
 31
0.0
 11
177.9055535995593
 21
130.9673581945434
 31
0.0
 11
177.8971768641327
 21
130.9587955988501
 31
0.0
 11
177.8882357051462
 21
130.9493797511169
 31
0.0
 11
177.8786529819529
 21
130.9389520088701
 31
0.0
 11
177.8683653139331
 21
130.9273441741569
 31
0.0
 11
177.8573258871935
 21
130.9143779516771
 31
0.0
 11
177.8455076151732
 21
130.8998647972305
 31
0.0
 11
177.8329065066869
 21
130.8836063816908
 31
0.0
  0
SPLINE
  5
8B50
330
1F
100
AcDbEntity
  8
0
  6
Continuous
 62
     7
100
AcDbSpline
210
0.0
220
0.0
230
1.0
 70
     8
 71
     3
 72
    11
 73
     7
 74
     5
 42
0.0000000001
 43
0.0000000001
 44
0.0000000001
 12
0.8641220195457124
 22
0.5032823614396193
 32
0.0
 13
0.0038267695118271
 23
0.999992677890745
 33
0.0
 40
0.0
 40
0.0
 40
0.0
 40
0.0
 40
0.1715790005314874
 40
0.3478111183030491
 40
0.5240432358914
 40
0.7002753533110937
 40
0.7002753533110937
 40
0.7002753533110937
 40
0.7002753533110937
 10
178.6999527507401
 20
129.9018645055451
 30
0.0
 10
178.7493744815571
 20
129.9306487337321
 30
0.0
 10
178.842532535403
 20
130.002111274017
 30
0.0
 10
178.9504997025927
 20
130.1419018587032
 30
0.0
 10
179.0193245127116
 20
130.3062546453262
 30
0.0
 10
179.0352736246794
 20
130.4242563374242
 30
0.0
 10
179.0354984245774
 20
130.4829999464338
 30
0.0
 11
178.6999527507401
 21
129.9018645055451
 31
0.0
 11
178.8360542167457
 21
130.0063429453043
 31
0.0
 11
178.9438161983247
 21
130.1457886862232
 31
0.0
 11
179.0118409890377
 21
130.3083629373152
 31
0.0
 11
179.0354984245774
 21
130.4829999464338
 31
0.0
  0
SPLINE
  5
8B51
330
1F
100
AcDbEntity
  8
0
  6
Continuous
 62
     7
100
AcDbSpline
210
0.0
220
0.0
230
1.0
 70
     8
 71
     3
 72
     8
 73
     4
 74
     2
 42
0.0000000001
 43
0.0000000001
 44
0.0000000001
 12
0.0038266950249794
 22
0.9999926781757883
 32
0.0
 13
-0.0027633727465059
 23
0.9999961818782431
 33
0.0
 40
0.0
 40
0.0
 40
0.0
 40
0.0
 40
0.0044279233578965
 40
0.0044279233578965
 40
0.0044279233578965
 40
0.0044279233578965
 10
179.0354984245774
 20
130.4829999464338
 30
0.0
 10
179.0355040726815
 20
130.4844759100797
 30
0.0
 10
179.0355048552849
 20
130.4859519003499
 30
0.0
 10
179.0355007766173
 20
130.487427869167
 30
0.0
 11
179.0354984245774
 21
130.4829999464338
 31
0.0
 11
179.0355007766173
 21
130.487427869167
 31
0.0
  0
SPLINE
  5
8B52
330
1F
100
AcDbEntity
  8
0
  6
Continuous
 62
     7
100
AcDbSpline
210
0.0
220
0.0
230
1.0
 70
     8
 71
     3
 72
     9
 73
     5
 74
     3
 42
0.0000000001
 43
0.0000000001
 44
0.0000000001
 12
-0.0027633857001411
 22
0.999996181842447
 32
0.0
 13
-0.4157009301811063
 23
0.9095013670394141
 33
0.0
 40
0.0
 40
0.0
 40
0.0
 40
0.0
 40
0.1718410734305719
 40
0.2872130289213847
 40
0.2872130289213847
 40
0.2872130289213847
 40
0.2872130289213847
 10
179.0355007766173
 20
130.487427869167
 30
0.0
 10
179.0353424888956
 20
130.5447080082718
 30
0.0
 10
179.0227587680708
 20
130.6409249940351
 30
0.0
 10
178.9903229633293
 20
130.731472860606
 30
0.0
 10
178.9743362202578
 20
130.7664498443516
 30
0.0
 11
179.0355007766173
 21
130.487427869167
 31
0.0
 11
179.0131782406175
 21
130.6578129005058
 31
0.0
 11
178.9743362202578
 21
130.7664498443516
 31
0.0
  0
SPLINE
  5
8B53
330
1F
100
AcDbEntity
  8
0
  6
Continuous
 62
     7
100
AcDbSpline
210
0.0
220
0.0
230
1.0
 70
     8
 71
     3
 72
     8
 73
     4
 74
     2
 42
0.0000000001
 43
0.0000000001
 44
0.0000000001
 12
-0.4157009978941925
 22
0.9095013360901525
 32
0.0
 13
-0.424261678665031
 23
0.9055396335977404
 33
0.0
 40
0.0
 40
0.0
 40
0.0
 40
0.0
 40
0.0063838865673411
 40
0.0063838865673411
 40
0.0063838865673411
 40
0.0063838865673411
 10
178.9743362202578
 20
130.7664498443516
 30
0.0
 10
178.9734516242523
 20
130.7683852288058
 30
0.0
 10
178.9725578920417
 20
130.7703164634571
 30
0.0
 10
178.9716550792312
 20
130.7722434175582
 30
0.0
 11
178.9743362202578
 21
130.7664498443516
 31
0.0
 11
178.9716550792312
 21
130.7722434175582
 31
0.0
  0
SPLINE
  5
8B54
330
1F
100
AcDbEntity
  8
0
  6
Continuous
 62
     7
100
AcDbSpline
210
0.0
220
0.0
230
1.0
 70
     8
 71
     3
 72
     8
 73
     4
 74
     2
 42
0.0000000001
 43
0.0000000001
 44
0.0000000001
 12
-0.42426172233637
 22
0.9055396131369279
 32
0.0
 13
-0.4964046117914593
 23
0.8680912748047701
 33
0.0
 40
0.0
 40
0.0
 40
0.0
 40
0.0
 40
0.0548232695581511
 40
0.0548232695581511
 40
0.0548232695581511
 40
0.0548232695581511
 10
178.9716550792312
 20
130.7722434175582
 30
0.0
 10
178.9639019409756
 20
130.7887916316604
 30
0.0
 10
178.9554711885318
 20
130.8050391404979
 30
0.0
 10
178.9463996805844
 20
130.8209030078178
 30
0.0
 11
178.9716550792312
 21
130.7722434175582
 31
0.0
 11
178.9463996805844
 21
130.8209030078178
 31
0.0
  0
SPLINE
  5
8B55
330
1F
100
AcDbEntity
  8
0
  6
Continuous
 62
     7
100
AcDbSpline
210
0.0
220
0.0
230
1.0
 70
     8
 71
     3
 72
    13
 73
     9
 74
     7
 42
0.0000000001
 43
0.0000000001
 44
0.0000000001
 12
-0.496404605748758
 22
0.8680912782601955
 32
0.0
 13
-0.8685652624117752
 23
-0.4955748025591739
 33
0.0
 40
0.0
 40
0.0
 40
0.0
 40
0.0
 40
0.1762321178268793
 40
0.3524642355213808
 40
0.5286963532838949
 40
0.7049284712582226
 40
0.8811605887637023
 40
1.057392705984817
 40
1.057392705984817
 40
1.057392705984817
 40
1.057392705984817
 10
178.9463996805844
 20
130.8209030078178
 30
0.0
 10
178.9172388689277
 20
130.8718981959628
 30
0.0
 10
178.8451743775384
 20
130.9666937030538
 30
0.0
 10
178.7042798680031
 20
131.0757411749196
 30
0.0
 10
178.5398991445616
 20
131.1447300521233
 30
0.0
 10
178.3632619522158
 20
131.1688088136372
 30
0.0
 10
178.1865056627934
 20
131.1464518637153
 30
0.0
 10
178.0762769896186
 20
131.1014061555612
 30
0.0
 10
178.0252539579054
 20
131.0722940899958
 30
0.0
 11
178.9463996805844
 21
130.8209030078178
 31
0.0
 11
178.8397080820988
 21
130.9611694049567
 31
0.0
 11
178.7003654990468
 21
131.0690647424625
 31
0.0
 11
178.5378563998014
 21
131.137245032822
 31
0.0
 11
178.3632421025162
 21
131.1610695283952
 31
0.0
 11
178.188407875944
 21
131.1389165949686
 31
0.0
 11
178.0252539579054
 21
131.0722940899958
 31
0.0
  0
SPLINE
  5
8B62
330
1F
100
AcDbEntity
  8
0
  6
Continuous
 62
     7
100
AcDbSpline
210
0.0
220
0.0
230
1.0
 70
     8
 71
     3
 72
    17
 73
    13
 74
    11
 42
0.0000000001
 43
0.0000000001
 44
0.0000000001
 12
-0.4436919726794861
 22
0.8961793533550002
 32
0.0
 13
-0.4437057779101237
 23
-0.896172518351892
 33
0.0
 40
0.0
 40
0.0
 40
0.0
 40
0.0
 40
0.0491423007926387
 40
0.1629982876676454
 40
0.2809725580884054
 40
0.4026677938048067
 40
0.5265248765635664
 40
0.65035490998208
 40
0.7719875951183012
 40
0.8899029904642294
 40
1.003710546140734
 40
1.052805307324134
 40
1.052805307324134
 40
1.052805307324134
 40
1.052805307324134
 10
44.54519982013382
 20
134.0776313364187
 30
0.0
 10
44.53793180534026
 20
134.0923114415343
 30
0.0
 10
44.51070813584713
 20
134.1394921868381
 30
0.0
 10
44.44740161715648
 20
134.2102636935484
 30
0.0
 10
44.34769691363025
 20
134.2753156879719
 30
0.0
 10
44.23229924086662
 20
134.315772130801
 30
0.0
 10
44.10890688367193
 20
134.329463191616
 30
0.0
 10
43.98554131903313
 20
134.3157243394309
 30
0.0
 10
43.87020568985706
 20
134.275244538863
 30
0.0
 10
43.77056650274069
 20
134.210198538961
 30
0.0
 10
43.70730688143825
 20
134.139456473874
 30
0.0
 10
43.68010155539489
 20
134.092302524148
 30
0.0
 10
43.67284034566083
 20
134.0776367322255
 30
0.0
 11
44.54519982013382
 21
134.0776313364187
 31
0.0
 11
44.52065281732726
 21
134.1202037497918
 31
0.0
 11
44.44515805256131
 21
134.2054312467644
 31
0.0
 11
44.34669004866854
 21
134.2704080171573
 31
0.0
 11
44.2319836512095
 21
134.3110549454304
 31
0.0
 11
44.10889883684379
 21
134.3248645588235
 31
0.0
 11
43.9858465759651
 21
134.3110074931503
 31
0.0
 11
43.87121327716548
 21
134.2703415749907
 31
0.0
 11
43.77281097037328
 21
134.2053721477379
 31
0.0
 11
43.69736168346051
 21
134.1201690677852
 31
0.0
 11
43.67284034566083
 21
134.0776367322255
 31
0.0
  0
SPLINE
  5
8B63
330
1F
100
AcDbEntity
  8
0
  6
Continuous
 62
     7
100
AcDbSpline
210
0.0
220
0.0
230
1.0
 70
     8
 71
     3
 72
    19
 73
    15
 74
    13
 42
0.0000000001
 43
0.0000000001
 44
0.0000000001
 12
0.0
 22
-1.0
 32
0.0
 13
0.0
 23
1.0
 33
0.0
 40
0.0
 40
0.0
 40
0.0
 40
0.0
 40
0.1095736058729241
 40
0.2224749589086378
 40
0.338899483615167
 40
0.4587638624394792
 40
0.5812742854485094
 40
0.7052169406540595
 40
0.8291864002172532
 40
0.9517587114414707
 40
1.071681375309096
 40
1.18815461956008
 40
1.301090435958346
 40
1.41067404022278
 40
1.41067404022278
 40
1.41067404022278
 40
1.41067404022278
 10
44.5840187569735
 20
134.2413573589775
 30
0.0
 10
44.5840187569735
 20
134.2048328236866
 30
0.0
 10
44.57284170899285
 20
134.1302574712764
 30
0.0
 10
44.52443546809656
 20
134.0266170605089
 30
0.0
 10
44.44777751631194
 20
133.9372061540023
 30
0.0
 10
44.34835550951131
 20
133.8684878663998
 30
0.0
 10
44.23289838707037
 20
133.825191120012
 30
0.0
 10
44.10913196430665
 20
133.8103858678973
 30
0.0
 10
43.98533792673976
 20
133.8251393455377
 30
0.0
 10
43.86981768041822
 20
133.8684117864288
 30
0.0
 10
43.77033016417087
 20
133.9371371941816
 30
0.0
 10
43.69362622892998
 20
134.0265728614301
 30
0.0
 10
43.64519907279079
 20
134.1302392018231
 30
0.0
 10
43.634018757061
 20
134.2048294908894
 30
0.0
 10
43.634018757061
 20
134.2413573589775
 30
0.0
 11
44.5840187569735
 21
134.2413573589775
 31
0.0
 11
44.56801184207384
 21
134.132959232705
 31
0.0
 11
44.52067561467393
 21
134.0304604664059
 31
0.0
 11
44.4452304180078
 21
133.9417886430732
 31
0.0
 11
44.34683101189526
 21
133.8733413919404
 31
0.0
 11
44.23219642954942
 21
133.8301243087875
 31
0.0
 11
44.1091397600774
 21
133.8153311388143
 31
0.0
 11
43.98604997577812
 21
133.8300733199808
 31
0.0
 11
43.87134174528561
 21
133.8732704649805
 31
0.0
 11
43.77287682241322
 21
133.9417255909598
 31
0.0
 11
43.69738615128031
 21
134.0304226889859
 31
0.0
 11
43.65002856840763
 21
134.1329495536118
 31
0.0
 11
43.634018757061
 21
134.2413573589775
 31
0.0
  0
SPLINE
  5
8B64
330
1F
100
AcDbEntity
  8
0
  6
Continuous
 62
     7
100
AcDbSpline
210
0.0
220
0.0
230
1.0
 70
     8
 71
     3
 72
    17
 73
    13
 74
    11
 42
0.0000000001
 43
0.0000000001
 44
0.0000000001
 12
0.4436919726794861
 22
-0.8961793533550002
 32
0.0
 13
0.4437057779101237
 23
0.896172518351892
 33
0.0
 40
0.0
 40
0.0
 40
0.0
 40
0.0
 40
0.0491423007924909
 40
0.1629982882291503
 40
0.280972557943016
 40
0.40266779474061
 40
0.5265248774044155
 40
0.6503549108233936
 40
0.771987595161387
 40
0.8899029905076947
 40
1.003710546184157
 40
1.052805307367443
 40
1.052805307367443
 40
1.052805307367443
 40
1.052805307367443
 10
43.67283769390044
 20
126.8935383767754
 30
0.0
 10
43.68010570869399
 20
126.8788582716599
 30
0.0
 10
43.70732937820257
 20
126.8316775261231
 30
0.0
 10
43.77063589767905
 20
126.7609060201696
 30
0.0
 10
43.87034060084594
 20
126.6958540250029
 30
0.0
 10
43.98573827358108
 20
126.6553975811901
 30
0.0
 10
44.10913063126703
 20
126.6417065219445
 30
0.0
 10
44.23249619561231
 20
126.6554453735278
 30
0.0
 10
44.34783182437919
 20
126.6959251745772
 30
0.0
 10
44.44747101129997
 20
126.7609711742073
 30
0.0
 10
44.51073063259595
 20
126.8317132393232
 30
0.0
 10
44.53793595863962
 20
126.8788671890463
 30
0.0
 10
44.54519716837367
 20
126.8935329809688
 30
0.0
 11
43.67283769390044
 21
126.8935383767754
 31
0.0
 11
43.69738469670702
 21
126.8509659634025
 31
0.0
 11
43.77287946231982
 21
126.7657384664297
 31
0.0
 11
43.87134746536574
 21
126.700761696037
 31
0.0
 11
43.98605386367186
 21
126.6601147669173
 31
0.0
 11
44.10913867803699
 21
126.6463051543707
 31
0.0
 11
44.23219093891614
 21
126.660162220044
 31
0.0
 11
44.34682423686879
 21
126.7008281382036
 31
0.0
 11
44.44522654366145
 21
126.7657975654565
 31
0.0
 11
44.52067583057422
 21
126.8510006454091
 31
0.0
 11
44.54519716837367
 21
126.8935329809688
 31
0.0
  0
SPLINE
  5
8B65
330
1F
100
AcDbEntity
  8
0
  6
Continuous
 62
     7
100
AcDbSpline
210
0.0
220
0.0
230
1.0
 70
     8
 71
     3
 72
    19
 73
    15
 74
    13
 42
0.0000000001
 43
0.0000000001
 44
0.0000000001
 12
0.0
 22
1.0
 32
0.0
 13
0.0
 23
-1.0
 33
0.0
 40
0.0
 40
0.0
 40
0.0
 40
0.0
 40
0.1095736058729803
 40
0.2224749589085471
 40
0.3388994836151196
 40
0.4587638631343206
 40
0.5812742853512583
 40
0.7052169413978541
 40
0.8291864001199849
 40
0.9517587124348128
 40
1.071681375124366
 40
1.188154619375221
 40
1.301090436542133
 40
1.410674039969025
 40
1.410674039969025
 40
1.410674039969025
 40
1.410674039969025
 10
43.634018757061
 20
126.7298123542167
 30
0.0
 10
43.634018757061
 20
126.7663368895077
 30
0.0
 10
43.64519580503511
 20
126.8409122419282
 30
0.0
 10
43.69360204596175
 20
126.9445526526473
 30
0.0
 10
43.77025999778133
 20
127.0339635595179
 30
0.0
 10
43.86968200507277
 20
127.102681846311
 30
0.0
 10
43.98513912742024
 20
127.1459785934932
 30
0.0
 10
44.10890555002731
 20
127.1607838452099
 30
0.0
 10
44.23269958797912
 20
127.1460303676804
 30
0.0
 10
44.34821983369653
 20
127.1027579260383
 30
0.0
 10
44.44770735017057
 20
127.0340325188334
 30
0.0
 10
44.52441128536903
 20
126.9445968515798
 30
0.0
 10
44.57283844090595
 20
126.84093051098
 30
0.0
 10
44.5840187569735
 20
126.7663402220257
 30
0.0
 10
44.5840187569735
 20
126.7298123542167
 30
0.0
 11
43.634018757061
 21
126.7298123542167
 31
0.0
 11
43.65002567196066
 21
126.8382104804892
 31
0.0
 11
43.69736189936034
 21
126.9407092467883
 31
0.0
 11
43.77280709602646
 21
127.0293810701211
 31
0.0
 11
43.87120650298553
 21
127.0978283212538
 31
0.0
 11
43.98584108448486
 21
127.1410454044067
 31
0.0
 11
44.10889775480396
 21
127.1558385743801
 31
0.0
 11
44.23198753825616
 21
127.1410963932135
 31
0.0
 11
44.34669576959518
 21
127.0978992473671
 31
0.0
 11
44.44516069162128
 21
127.0294441222343
 31
0.0
 11
44.52065136275419
 21
126.9407470242084
 31
0.0
 11
44.56800894562687
 21
126.8382201587359
 31
0.0
 11
44.5840187569735
 21
126.7298123542167
 31
0.0
  0
SPLINE
  5
8B66
330
1F
100
AcDbEntity
  8
0
  6
Continuous
 62
     7
100
AcDbSpline
210
0.0
220
0.0
230
1.0
 70
     8
 71
     3
 72
    19
 73
    15
 74
    13
 42
0.0000000001
 43
0.0000000001
 44
0.0000000001
 12
0.0
 22
1.0
 32
0.0
 13
0.0
 23
-1.0
 33
0.0
 40
0.0
 40
0.0
 40
0.0
 40
0.0
 40
0.1095001487417555
 40
0.2210539346381942
 40
0.3341966962511861
 40
0.4517304830816168
 40
0.5733461158940197
 40
0.6970665726148378
 40
0.8208217929223934
 40
0.9424588966966396
 40
1.06012516682254
 40
1.17337734657143
 40
1.284834216570612
 40
1.393938194719247
 40
1.393938194719247
 40
1.393938194719247
 40
1.393938194719247
 10
43.634018757061
 20
134.2413573589775
 30
0.0
 10
43.634018757061
 20
134.2778574085581
 30
0.0
 10
43.64513801588628
 20
134.3520148711085
 30
0.0
 10
43.69414448189003
 20
134.4537799491015
 30
0.0
 10
43.77131882536192
 20
134.539700171743
 30
0.0
 10
43.87067285448662
 20
134.6045714055226
 30
0.0
 10
43.98583338038685
 20
134.6450197844676
 30
0.0
 10
44.10912967448929
 20
134.6587385225072
 30
0.0
 10
44.23242873581557
 20
134.6449713198728
 30
0.0
 10
44.34763084958533
 20
134.6044484408987
 30
0.0
 10
44.447018730484
 20
134.5394600699546
 30
0.0
 10
44.52413835626754
 20
134.4534192603168
 30
0.0
 10
44.5729665543154
 20
134.3517135410394
 30
0.0
 10
44.5840187569735
 20
134.2777253516938
 30
0.0
 10
44.5840187569735
 20
134.2413573589775
 30
0.0
 11
43.634018757061
 21
134.2413573589775
 31
0.0
 11
43.65026025281409
 21
134.3496463075835
 31
0.0
 11
43.69827918564706
 21
134.4503360748759
 31
0.0
 11
43.7734650466198
 21
134.5348841133819
 31
0.0
 11
43.87156298605899
 21
134.5996219332748
 31
0.0
 11
43.98617176369796
 21
134.6403059624811
 31
0.0
 11
44.10911732341074
 21
134.6541313289544
 31
0.0
 11
44.23209201946284
 21
134.6402540567344
 31
0.0
 11
44.34670194941557
 21
134.5995091310281
 31
0.0
 11
44.44486599404789
 21
134.5346310032286
 31
0.0
 11
44.52003499026753
 21
134.4499216281559
 31
0.0
 11
44.56789445174027
 21
134.34926326627
 31
0.0
 11
44.5840187569735
 21
134.2413573589775
 31
0.0
  0
SPLINE
  5
8B67
330
1F
100
AcDbEntity
  8
0
  6
Continuous
 62
     7
100
AcDbSpline
210
0.0
220
0.0
230
1.0
 70
     8
 71
     3
 72
    19
 73
    15
 74
    13
 42
0.0000000001
 43
0.0000000001
 44
0.0000000001
 12
0.0
 22
-1.0
 32
0.0
 13
0.0
 23
1.0
 33
0.0
 40
0.0
 40
0.0
 40
0.0
 40
0.0
 40
0.1095447790714489
 40
0.221165895531176
 40
0.3342935246747116
 40
0.4517816027151059
 40
0.5733833570556481
 40
0.6970846016789913
 40
0.8208211061263083
 40
0.9424415519329549
 40
1.060059636905282
 40
1.17327152965269
 40
1.284801195489484
 40
1.3939378330791
 40
1.3939378330791
 40
1.3939378330791
 40
1.3939378330791
 10
44.5840187569735
 20
126.7298123542167
 30
0.0
 10
44.5840187569735
 20
126.6932974278595
 30
0.0
 10
44.57288919443509
 20
126.6191020776538
 30
0.0
 10
44.52384608186264
 20
126.5173161518023
 30
0.0
 10
44.44664920967709
 20
126.4314143859885
 30
0.0
 10
44.34730721678038
 20
126.3665729699092
 30
0.0
 10
44.23216849397817
 20
126.3261431915211
 30
0.0
 10
44.10888917187793
 20
126.3124326150625
 30
0.0
 10
43.98560888316482
 20
126.3261997554602
 30
0.0
 10
43.87043286149842
 20
126.3667113572958
 30
0.0
 10
43.77107007267456
 20
126.4316713856309
 30
0.0
 10
43.69393742109468
 20
126.5176912990839
 30
0.0
 10
43.64507959933367
 20
126.6194097236692
 30
0.0
 10
43.634018757061
 20
126.6934334750202
 30
0.0
 10
43.634018757061
 20
126.7298123542167
 30
0.0
 11
44.5840187569735
 21
126.7298123542167
 31
0.0
 11
44.56776403290044
 21
126.6214802603242
 31
0.0
 11
44.51969543883402
 21
126.5207395838118
 31
0.0
 11
44.44449836545451
 21
126.4362217713058
 31
0.0
 11
44.34642821784862
 21
126.3715248267861
 31
0.0
 11
44.23182900838972
 21
126.3308553314598
 31
0.0
 11
44.10890183489065
 21
126.3170383876266
 31
0.0
 11
43.98594596108458
 21
126.3309155497798
 31
0.0
 11
43.87135102136565
 21
126.3716529113663
 31
0.0
 11
43.77322137256638
 21
126.4364956899857
 31
0.0
 11
43.69806164565344
 21
126.5211594254916
 31
0.0
 11
43.65015270752079
 21
126.6218748662575
 31
0.0
 11
43.634018757061
 21
126.7298123542167
 31
0.0
  0
SPLINE
  5
8B68
330
1F
100
AcDbEntity
  8
0
  6
Continuous
 62
     7
100
AcDbSpline
210
0.0
220
0.0
230
1.0
 70
     8
 71
     3
 72
    17
 73
    13
 74
    11
 42
0.0000000001
 43
0.0000000001
 44
0.0000000001
 12
0.4436919726794861
 22
-0.8961793533550002
 32
0.0
 13
0.4437057779101237
 23
0.896172518351892
 33
0.0
 40
0.0
 40
0.0
 40
0.0
 40
0.0
 40
0.0491423007924909
 40
0.1629982876676253
 40
0.2809725580883227
 40
0.4026677940872687
 40
0.5265248767516391
 40
0.6503549101706172
 40
0.7719875953064099
 40
0.8899029906523383
 40
1.0037105463288
 40
1.052805307512313
 40
1.052805307512313
 40
1.052805307512313
 40
1.052805307512313
 10
49.77283769431929
 20
126.8935383767754
 30
0.0
 10
49.78010570911283
 20
126.8788582716599
 30
0.0
 10
49.80732937860934
 20
126.8316775263667
 30
0.0
 10
49.87063589726874
 20
126.7609060195537
 30
0.0
 10
49.97034060100865
 20
126.6958540255215
 30
0.0
 10
50.08573827332973
 20
126.6553975809893
 30
0.0
 10
50.20913063087345
 20
126.6417065219609
 30
0.0
 10
50.33249619540398
 20
126.6554453736637
 30
0.0
 10
50.44783182460005
 20
126.6959251743572
 30
0.0
 10
50.54747101171118
 20
126.7609711742266
 30
0.0
 10
50.61073063301462
 20
126.8317132393212
 30
0.0
 10
50.63793595905821
 20
126.8788671890463
 30
0.0
 10
50.64519716879229
 20
126.8935329809688
 30
0.0
 11
49.77283769431929
 21
126.8935383767754
 31
0.0
 11
49.79738469712586
 21
126.8509659634025
 31
0.0
 11
49.87287946189181
 21
126.7657384664297
 31
0.0
 11
49.97134746578459
 21
126.700761696037
 31
0.0
 11
50.08605386324339
 21
126.6601147669173
 31
0.0
 11
50.2091386776091
 21
126.6463051543707
 31
0.0
 11
50.33219093848825
 21
126.660162220044
 31
0.0
 11
50.44682423728741
 21
126.7008281382036
 31
0.0
 11
50.54522654407961
 21
126.7657975654565
 31
0.0
 11
50.62067583099238
 21
126.8510006454091
 31
0.0
 11
50.64519716879229
 21
126.8935329809688
 31
0.0
  0
SPLINE
  5
8B69
330
1F
100
AcDbEntity
  8
0
  6
Continuous
 62
     7
100
AcDbSpline
210
0.0
220
0.0
230
1.0
 70
     8
 71
     3
 72
    19
 73
    15
 74
    13
 42
0.0000000001
 43
0.0000000001
 44
0.0000000001
 12
0.0
 22
1.0
 32
0.0
 13
0.0
 23
-1.0
 33
0.0
 40
0.0
 40
0.0
 40
0.0
 40
0.0
 40
0.1095736057493187
 40
0.2224749591398986
 40
0.3388994838463237
 40
0.4587638626707901
 40
0.5812742856798203
 40
0.7052169408857293
 40
0.8291864004483656
 40
0.9517587119712052
 40
1.071681375355618
 40
1.188154619606178
 40
1.301090436773281
 40
1.410674040200173
 40
1.410674040200173
 40
1.410674040200173
 40
1.410674040200173
 10
49.73401875747962
 20
126.7298123542167
 30
0.0
 10
49.73401875747962
 20
126.7663368894665
 30
0.0
 10
49.74519580399681
 20
126.8409122422522
 30
0.0
 10
49.79360204666916
 20
126.9445526524475
 30
0.0
 10
49.87025999803217
 20
127.0339635592348
 30
0.0
 10
49.96968200496965
 20
127.1026818467769
 30
0.0
 10
50.08513912738437
 20
127.1459785932083
 30
0.0
 10
50.20890555011155
 20
127.1607838452094
 30
0.0
 10
50.3326995879507
 20
127.1460303679679
 30
0.0
 10
50.44821983356333
 20
127.1027579255611
 30
0.0
 10
50.54770735053073
 20
127.0340325191577
 30
0.0
 10
50.62441128576285
 20
126.9445968515418
 30
0.0
 10
50.67283844133132
 20
126.8409305109904
 30
0.0
 10
50.68401875739212
 20
126.7663402220257
 30
0.0
 10
50.68401875739212
 20
126.7298123542167
 30
0.0
 11
49.73401875747962
 21
126.7298123542167
 31
0.0
 11
49.75002567153277
 21
126.8382104804892
 31
0.0
 11
49.79736189977919
 21
126.9407092467883
 31
0.0
 11
49.87280709644508
 21
127.0293810701211
 31
0.0
 11
49.97120650255786
 21
127.0978283212538
 31
0.0
 11
50.08584108490371
 21
127.1410454044067
 31
0.0
 11
50.20889775437606
 21
127.1558385743801
 31
0.0
 11
50.33198753867478
 21
127.1410963932135
 31
0.0
 11
50.44669576916752
 21
127.0978992473671
 31
0.0
 11
50.5451606920399
 21
127.0294441222343
 31
0.0
 11
50.62065136317236
 21
126.9407470242084
 31
0.0
 11
50.66800894604549
 21
126.8382201587359
 31
0.0
 11
50.68401875739212
 21
126.7298123542167
 31
0.0
  0
SPLINE
  5
8B6A
330
1F
100
AcDbEntity
  8
0
  6
Continuous
 62
     7
100
AcDbSpline
210
0.0
220
0.0
230
1.0
 70
     8
 71
     3
 72
    17
 73
    13
 74
    11
 42
0.0000000001
 43
0.0000000001
 44
0.0000000001
 12
-0.4436919726794861
 22
0.8961793533550002
 32
0.0
 13
-0.4437057779101237
 23
-0.896172518351892
 33
0.0
 40
0.0
 40
0.0
 40
0.0
 40
0.0
 40
0.049142300369685
 40
0.1629982878060659
 40
0.2809725575201841
 40
0.4026677940342689
 40
0.5265248767930287
 40
0.65035491021222
 40
0.7719875945502133
 40
0.8899029898961416
 40
1.003710545572646
 40
1.052805306756046
 40
1.052805306756046
 40
1.052805306756046
 40
1.052805306756046
 10
50.64519981970571
 20
134.0776313364187
 30
0.0
 10
50.63793180497469
 20
134.092311441408
 30
0.0
 10
50.6107081368712
 20
134.1394921875998
 30
0.0
 10
50.54740161648521
 20
134.210263692782
 30
0.0
 10
50.44769691386644
 20
134.2753156885326
 30
0.0
 10
50.33229924059527
 20
134.3157721305888
 30
0.0
 10
50.20890688328402
 20
134.3294631916354
 30
0.0
 10
50.08554131882322
 20
134.315724339566
 30
0.0
 10
49.97020569007827
 20
134.2752445386431
 30
0.0
 10
49.87056650315207
 20
134.2101985389802
 30
0.0
 10
49.8073068818577
 20
134.1394564738718
 30
0.0
 10
49.78010155581351
 20
134.092302524148
 30
0.0
 10
49.77284034607944
 20
134.0776367322255
 30
0.0
 11
50.64519981970571
 21
134.0776313364187
 31
0.0
 11
50.62065281774588
 21
134.1202037497918
 31
0.0
 11
50.5451580521333
 21
134.2054312467644
 31
0.0
 11
50.44669004908715
 21
134.2704080171573
 31
0.0
 11
50.33198365078184
 21
134.3110549454304
 31
0.0
 11
50.20889883641612
 21
134.3248645588235
 31
0.0
 11
50.08584657553675
 21
134.3110074931503
 31
0.0
 11
49.9712132775841
 21
134.2703415749907
 31
0.0
 11
49.8728109707919
 21
134.2053721477379
 31
0.0
 11
49.79736168387913
 21
134.1201690677852
 31
0.0
 11
49.77284034607944
 21
134.0776367322255
 31
0.0
  0
SPLINE
  5
8B6B
330
1F
100
AcDbEntity
  8
0
  6
Continuous
 62
     7
100
AcDbSpline
210
0.0
220
0.0
230
1.0
 70
     8
 71
     3
 72
    19
 73
    15
 74
    13
 42
0.0000000001
 43
0.0000000001
 44
0.0000000001
 12
0.0
 22
-1.0
 32
0.0
 13
0.0
 23
1.0
 33
0.0
 40
0.0
 40
0.0
 40
0.0
 40
0.0
 40
0.1095736058730071
 40
0.2224749589084825
 40
0.3388994836148643
 40
0.4587638631342844
 40
0.5812742861433146
 40
0.7052169413492032
 40
0.8291864000713273
 40
0.9517587120879584
 40
1.071681375260538
 40
1.188154619511374
 40
1.301090435909926
 40
1.410674040174294
 40
1.410674040174294
 40
1.410674040174294
 40
1.410674040174294
 10
50.68401875739212
 20
134.2413573589775
 30
0.0
 10
50.68401875739212
 20
134.2048328236866
 30
0.0
 10
50.67284170941658
 20
134.1302574712679
 30
0.0
 10
50.6244354684931
 20
134.0266170605409
 30
0.0
 10
50.54777751666479
 20
133.9372061536999
 30
0.0
 10
50.44835550918744
 20
133.8684878666402
 30
0.0
 10
50.33289838668026
 20
133.825191119994
 30
0.0
 10
50.20913196412529
 20
133.8103858678399
 30
0.0
 10
50.0853379267072
 20
133.8251393458493
 30
0.0
 10
49.96981768028605
 20
133.8684117859453
 30
0.0
 10
49.87033016453058
 20
133.9371371945074
 30
0.0
 10
49.79362622932494
 20
134.0265728613923
 30
0.0
 10
49.74519907321513
 20
134.1302392018333
 30
0.0
 10
49.73401875747962
 20
134.2048294908894
 30
0.0
 10
49.73401875747962
 20
134.2413573589775
 30
0.0
 11
50.68401875739212
 21
134.2413573589775
 31
0.0
 11
50.6680118424919
 21
134.132959232705
 31
0.0
 11
50.62067561509255
 21
134.0304604664059
 31
0.0
 11
50.54523041842665
 21
133.9417886430732
 31
0.0
 11
50.44683101146737
 21
133.8733413919404
 31
0.0
 11
50.33219642912152
 21
133.8301243087875
 31
0.0
 11
50.20913975964916
 21
133.8153311388143
 31
0.0
 11
50.08604997619696
 21
133.8300733199808
 31
0.0
 11
49.97134174485771
 21
133.8732704649805
 31
0.0
 11
49.87287682283184
 21
133.9417255909598
 31
0.0
 11
49.79738615169916
 21
134.0304226889859
 31
0.0
 11
49.75002856882579
 21
134.1329495536118
 31
0.0
 11
49.73401875747962
 21
134.2413573589775
 31
0.0
  0
SPLINE
  5
8B6C
330
1F
100
AcDbEntity
  8
0
  6
Continuous
 62
     7
100
AcDbSpline
210
0.0
220
0.0
230
1.0
 70
     8
 71
     3
 72
    19
 73
    15
 74
    13
 42
0.0000000001
 43
0.0000000001
 44
0.0000000001
 12
0.0
 22
-1.0
 32
0.0
 13
0.0
 23
1.0
 33
0.0
 40
0.0
 40
0.0
 40
0.0
 40
0.0
 40
0.1095001487415868
 40
0.2210539346381282
 40
0.3341966968840131
 40
0.4517304832480895
 40
0.5733461160604923
 40
0.6970665727807264
 40
0.8208217930888277
 40
0.9424588968626645
 40
1.060125166988755
 40
1.173377346737376
 40
1.284834216736704
 40
1.393938194885339
 40
1.393938194885339
 40
1.393938194885339
 40
1.393938194885339
 10
50.68401875739212
 20
126.7298123542167
 30
0.0
 10
50.68401875739212
 20
126.6933123046362
 30
0.0
 10
50.67289949862356
 20
126.6191548420295
 30
0.0
 10
50.62389303226639
 20
126.5173897641026
 30
0.0
 10
50.54671868966644
 20
126.4314695404922
 30
0.0
 10
50.44736465963396
 20
126.3665983078706
 30
0.0
 10
50.33220413411729
 20
126.3261499286571
 30
0.0
 10
50.20890783995003
 20
126.3124311907062
 30
0.0
 10
50.08560877864121
 20
126.3261983933162
 30
0.0
 10
49.97040666486698
 20
126.3667212722972
 30
0.0
 10
49.87101878396936
 20
126.4317096432391
 30
0.0
 10
49.79389915818595
 20
126.5177504528777
 30
0.0
 10
49.74507096013764
 20
126.6194561721547
 30
0.0
 10
49.73401875747962
 20
126.6934443615005
 30
0.0
 10
49.73401875747962
 20
126.7298123542167
 30
0.0
 11
50.68401875739212
 21
126.7298123542167
 31
0.0
 11
50.66777726163903
 21
126.621523405611
 31
0.0
 11
50.61975832880605
 21
126.5208336383184
 31
0.0
 11
50.54457246783309
 21
126.4362855989657
 31
0.0
 11
50.44647452839391
 21
126.3715477799195
 31
0.0
 11
50.33186575075493
 21
126.3308637507132
 31
0.0
 11
50.20892019104272
 21
126.3170383842401
 31
0.0
 11
50.08594549499005
 21
126.3309156564598
 31
0.0
 11
49.97133556503777
 21
126.3716605821662
 31
0.0
 11
49.87317152040524
 21
126.4365387099657
 31
0.0
 11
49.79800252418593
 21
126.5212480850383
 31
0.0
 11
49.75014306271285
 21
126.6219064469243
 31
0.0
 11
49.73401875747962
 21
126.7298123542167
 31
0.0
  0
SPLINE
  5
8B6D
330
1F
100
AcDbEntity
  8
0
  6
Continuous
 62
     7
100
AcDbSpline
210
0.0
220
0.0
230
1.0
 70
     8
 71
     3
 72
    19
 73
    15
 74
    13
 42
0.0000000001
 43
0.0000000001
 44
0.0000000001
 12
0.0
 22
1.0
 32
0.0
 13
0.0
 23
-1.0
 33
0.0
 40
0.0
 40
0.0
 40
0.0
 40
0.0
 40
0.1095447790715389
 40
0.2211658947670171
 40
0.3342935245432379
 40
0.4517816025832545
 40
0.5733833569240492
 40
0.697084601547386
 40
0.8208211059944707
 40
0.9424415518010983
 40
1.060059637240233
 40
1.173271529354547
 40
1.284801195191238
 40
1.393937832780888
 40
1.393937832780888
 40
1.393937832780888
 40
1.393937832780888
 10
49.73401875747962
 20
134.2413573589775
 30
0.0
 10
49.73401875747962
 20
134.2778722853347
 30
0.0
 10
49.74514831978342
 20
134.3520676353942
 30
0.0
 10
49.79419143312727
 20
134.4538535607358
 30
0.0
 10
49.8713883044197
 20
134.5397553272324
 30
0.0
 10
49.97073029772386
 20
134.6045967432457
 30
0.0
 10
50.08586902045731
 20
134.6450265216795
 30
0.0
 10
50.20914834259267
 20
134.6587370981473
 30
0.0
 10
50.33242863123611
 20
134.6449699576654
 30
0.0
 10
50.44760465328714
 20
134.6044583560967
 30
0.0
 10
50.54696744120271
 20
134.5394983266051
 30
0.0
 10
50.62410009365466
 20
134.4534784141193
 30
0.0
 10
50.67295791506262
 20
134.351759989469
 30
0.0
 10
50.68401875739212
 20
134.2777362381741
 30
0.0
 10
50.68401875739212
 20
134.2413573589775
 30
0.0
 11
49.73401875747962
 21
134.2413573589775
 31
0.0
 11
49.75027348155291
 21
134.3496894528701
 31
0.0
 11
49.79834207561911
 21
134.4504301285359
 31
0.0
 11
49.87353914899862
 21
134.5349479418887
 31
0.0
 11
49.97160929660427
 21
134.599644886408
 31
0.0
 11
50.0862085060634
 21
134.6403143817344
 31
0.0
 11
50.20913567956248
 21
134.6541313255676
 31
0.0
 11
50.33209155336831
 21
134.6402541634144
 31
0.0
 11
50.44668649308724
 21
134.599516801828
 31
0.0
 11
50.54481614188651
 21
134.5346740223618
 31
0.0
 11
50.61997586879946
 21
134.4500102877025
 31
0.0
 11
50.66788480693211
 21
134.3492948469367
 31
0.0
 11
50.68401875739212
 21
134.2413573589775
 31
0.0
  0
LINE
  5
8C0C
330
1F
100
AcDbEntity
  8
0
  6
Continuous
 62
     7
100
AcDbLine
 10
100.7084943794154
 20
129.822187397099
 30
0.0
 11
100.7084943794154
 21
131.1489823160952
 31
0.0
  0
LINE
  5
8C0D
330
1F
100
AcDbEntity
  8
0
  6
Continuous
 62
     7
100
AcDbLine
 10
100.8584943791341
 20
129.735584856733
 30
0.0
 11
100.8584943791341
 21
131.2355848564612
 31
0.0
  0
LINE
  5
8C0E
330
1F
100
AcDbEntity
  8
0
  6
Continuous
 62
     7
100
AcDbLine
 10
108.5884943790611
 20
138.4855848564175
 30
0.0
 11
108.0884943791516
 21
137.985584856508
 31
0.0
  0
LINE
  5
8C0F
330
1F
100
AcDbEntity
  8
0
  6
Continuous
 62
     7
100
AcDbLine
 10
108.5884943790611
 20
122.4855848567768
 30
0.0
 11
108.0884943791516
 21
122.9855848566862
 31
0.0
  0
LINE
  5
8C10
330
1F
100
AcDbEntity
  8
0
  6
Continuous
 62
     7
100
AcDbLine
 10
106.2884943791391
 20
128.5605848563956
 30
0.0
 11
106.2884943791391
 21
132.4105848567987
 31
0.0
  0
LINE
  5
8C11
330
1F
100
AcDbEntity
  8
0
  6
Continuous
 62
     7
100
AcDbLine
 10
107.0884943793329
 20
127.6856337970625
 30
0.0
 11
107.0884943793329
 21
133.2855359161317
 31
0.0
  0
LINE
  5
8C12
330
1F
100
AcDbEntity
  8
0
  6
Continuous
 62
     7
100
AcDbLine
 10
107.2884943789579
 20
127.4855848567174
 30
0.0
 11
107.2884943789579
 21
133.4855848564768
 31
0.0
  0
LINE
  5
8C13
330
1F
100
AcDbEntity
  8
0
  6
Continuous
 62
     7
100
AcDbLine
 10
107.8884943795266
 20
133.4855848564768
 30
0.0
 11
107.8884943795266
 21
127.4855848567174
 31
0.0
  0
LINE
  5
8C14
330
1F
100
AcDbEntity
  8
0
  6
Continuous
 62
     7
100
AcDbLine
 10
108.0884943791516
 20
122.9856286327395
 30
0.0
 11
108.0884943791516
 21
137.9855410804547
 31
0.0
  0
LINE
  5
8C15
330
1F
100
AcDbEntity
  8
0
  6
Continuous
 62
     7
100
AcDbLine
 10
108.5884943790611
 20
122.4855848567768
 30
0.0
 11
108.5884943790611
 21
138.4855848564175
 31
0.0
  0
LINE
  5
8C16
330
1F
100
AcDbEntity
  8
0
  6
Continuous
 62
     7
100
AcDbLine
 10
107.2884943789579
 20
133.4855848564768
 30
0.0
 11
107.0884943793329
 21
133.2855848568517
 31
0.0
  0
LINE
  5
8C17
330
1F
100
AcDbEntity
  8
0
  6
Continuous
 62
     7
100
AcDbLine
 10
100.7085051278487
 20
131.1489636851952
 30
0.0
 11
100.8585065304943
 21
131.2355637939345
 31
0.0
  0
LINE
  5
8C18
330
1F
100
AcDbEntity
  8
0
  6
Continuous
 62
     7
100
AcDbLine
 10
100.7085051278487
 20
129.822206027999
 30
0.0
 11
100.8585065304943
 21
129.7356059192596
 31
0.0
  0
LINE
  5
8C19
330
1F
100
AcDbEntity
  8
0
  6
Continuous
 62
     7
100
AcDbLine
 10
107.2884943789579
 20
127.4855848567174
 30
0.0
 11
107.0884943793329
 21
127.6855848563425
 31
0.0
  0
LINE
  5
8C1B
330
1F
100
AcDbEntity
  8
0
  6
Continuous
 62
     7
100
AcDbLine
 10
117.488494379311
 20
122.4855848567768
 30
0.0
 11
108.5884943790611
 21
122.4855848567768
 31
0.0
  0
LINE
  5
8C1C
330
1F
100
AcDbEntity
  8
0
  6
Continuous
 62
     7
100
AcDbLine
 10
117.5884943791235
 20
122.4855848567768
 30
0.0
 11
126.4884943793734
 21
122.4855848567768
 31
0.0
  0
LINE
  5
8C23
330
1F
100
AcDbEntity
  8
0
  6
Continuous
 62
     7
100
AcDbLine
 10
107.8884943795266
 20
127.4855848567174
 30
0.0
 11
107.2884943789579
 21
127.4855848567174
 31
0.0
  0
LINE
  5
8C24
330
1F
100
AcDbEntity
  8
0
  6
Continuous
 62
     7
100
AcDbLine
 10
127.188494378908
 20
127.4855848567174
 30
0.0
 11
127.7884943794766
 21
127.4855848567174
 31
0.0
  0
LINE
  5
8C25
330
1F
100
AcDbEntity
  8
0
  6
Continuous
 62
     7
100
AcDbLine
 10
128.7884943792954
 20
128.5605848563956
 30
0.0
 11
127.9884943791016
 21
128.5605848563956
 31
0.0
  0
LINE
  5
8C26
330
1F
100
AcDbEntity
  8
0
  6
Continuous
 62
     7
100
AcDbLine
 10
106.2884943791391
 20
128.5605848563956
 30
0.0
 11
107.0884943793329
 21
128.5605848563956
 31
0.0
  0
LINE
  5
8C27
330
1F
100
AcDbEntity
  8
0
  6
Continuous
 62
     7
100
AcDbLine
 10
117.488494379311
 20
122.4855848567768
 30
0.0
 11
117.4884943793109
 21
138.4855848564175
 31
0.0
  0
LINE
  5
8C28
330
1F
100
AcDbEntity
  8
0
  6
Continuous
 62
     7
100
AcDbLine
 10
117.5884943791235
 20
122.4855848567768
 30
0.0
 11
117.5884943791235
 21
138.4855848564175
 31
0.0
  0
LINE
  5
8C29
330
1F
100
AcDbEntity
  8
0
  6
Continuous
 62
     7
100
AcDbLine
 10
134.248494379281
 20
129.735584856733
 30
0.0
 11
128.7884943792954
 21
129.735584856733
 31
0.0
  0
LINE
  5
8C2A
330
1F
100
AcDbEntity
  8
0
  6
Continuous
 62
     7
100
AcDbLine
 10
106.2884943791391
 20
129.735584856733
 30
0.0
 11
100.8584943791341
 21
129.735584856733
 31
0.0
  0
LINE
  5
8C2C
330
1F
100
AcDbEntity
  8
0
  6
Continuous
 62
     7
100
AcDbLine
 10
134.248494379281
 20
131.2355848564612
 30
0.0
 11
128.7884943792954
 21
131.2355848564612
 31
0.0
  0
LINE
  5
8C2D
330
1F
100
AcDbEntity
  8
0
  6
Continuous
 62
     7
100
AcDbLine
 10
106.2884943791391
 20
131.2355848564612
 30
0.0
 11
100.8584943791341
 21
131.2355848564612
 31
0.0
  0
LINE
  5
8C2E
330
1F
100
AcDbEntity
  8
0
  6
Continuous
 62
     7
100
AcDbLine
 10
128.7884943792954
 20
132.4105848567987
 30
0.0
 11
127.9884943791016
 21
132.4105848567987
 31
0.0
  0
LINE
  5
8C2F
330
1F
100
AcDbEntity
  8
0
  6
Continuous
 62
     7
100
AcDbLine
 10
106.2884943791391
 20
132.4105848567987
 30
0.0
 11
107.0884943793329
 21
132.4105848567987
 31
0.0
  0
LINE
  5
8C32
330
1F
100
AcDbEntity
  8
0
  6
Continuous
 62
     7
100
AcDbLine
 10
107.8884943795266
 20
133.4855848564768
 30
0.0
 11
107.2884943789579
 21
133.4855848564768
 31
0.0
  0
LINE
  5
8C33
330
1F
100
AcDbEntity
  8
0
  6
Continuous
 62
     7
100
AcDbLine
 10
127.188494378908
 20
133.4855848564768
 30
0.0
 11
127.7884943794766
 21
133.4855848564768
 31
0.0
  0
LINE
  5
8C38
330
1F
100
AcDbEntity
  8
0
  6
Continuous
 62
     7
100
AcDbLine
 10
126.4884943793734
 20
122.4855848567768
 30
0.0
 11
126.4884943793734
 21
138.4855848564175
 31
0.0
  0
LINE
  5
8C39
330
1F
100
AcDbEntity
  8
0
  6
Continuous
 62
     7
100
AcDbLine
 10
117.4884943793109
 20
138.4855848564175
 30
0.0
 11
108.5884943790611
 21
138.4855848564175
 31
0.0
  0
LINE
  5
8C3A
330
1F
100
AcDbEntity
  8
0
  6
Continuous
 62
     7
100
AcDbLine
 10
117.5884943791235
 20
138.4855848564175
 30
0.0
 11
126.4884943793734
 21
138.4855848564175
 31
0.0
  0
LINE
  5
8C3C
330
1F
100
AcDbEntity
  8
0
  6
Continuous
 62
     7
100
AcDbLine
 10
126.9884943792829
 20
122.9856286327395
 30
0.0
 11
126.9884943792829
 21
137.9855410804547
 31
0.0
  0
LINE
  5
8C3D
330
1F
100
AcDbEntity
  8
0
  6
Continuous
 62
     7
100
AcDbLine
 10
127.188494378908
 20
127.4855848567174
 30
0.0
 11
127.188494378908
 21
133.4855848564768
 31
0.0
  0
LINE
  5
8C3E
330
1F
100
AcDbEntity
  8
0
  6
Continuous
 62
     7
100
AcDbLine
 10
127.7884943794766
 20
127.4855848567174
 30
0.0
 11
127.7884943794766
 21
133.4855848564768
 31
0.0
  0
LINE
  5
8C3F
330
1F
100
AcDbEntity
  8
0
  6
Continuous
 62
     7
100
AcDbLine
 10
127.7884943794766
 20
127.4855848567174
 30
0.0
 11
127.9884943791016
 21
127.6855848563425
 31
0.0
  0
LINE
  5
8C40
330
1F
100
AcDbEntity
  8
0
  6
Continuous
 62
     7
100
AcDbLine
 10
134.3984836305665
 20
129.822206027999
 30
0.0
 11
134.248482227921
 21
129.7356059192596
 31
0.0
  0
LINE
  5
8C41
330
1F
100
AcDbEntity
  8
0
  6
Continuous
 62
     7
100
AcDbLine
 10
134.3984836305665
 20
131.1489636851952
 30
0.0
 11
134.248482227921
 21
131.2355637939345
 31
0.0
  0
LINE
  5
8C42
330
1F
100
AcDbEntity
  8
0
  6
Continuous
 62
     7
100
AcDbLine
 10
127.7884943794766
 20
133.4855848564768
 30
0.0
 11
127.9884943791016
 21
133.2855848568517
 31
0.0
  0
LINE
  5
8C43
330
1F
100
AcDbEntity
  8
0
  6
Continuous
 62
     7
100
AcDbLine
 10
127.9884943791016
 20
127.6856337970625
 30
0.0
 11
127.9884943791016
 21
133.2855359161317
 31
0.0
  0
LINE
  5
8C44
330
1F
100
AcDbEntity
  8
0
  6
Continuous
 62
     7
100
AcDbLine
 10
128.7884943792954
 20
128.5605848563956
 30
0.0
 11
128.7884943792954
 21
132.4105848567987
 31
0.0
  0
LINE
  5
8C45
330
1F
100
AcDbEntity
  8
0
  6
Continuous
 62
     7
100
AcDbLine
 10
126.4884943793734
 20
122.4855848567768
 30
0.0
 11
126.9884943792829
 21
122.9855848566862
 31
0.0
  0
LINE
  5
8C46
330
1F
100
AcDbEntity
  8
0
  6
Continuous
 62
     7
100
AcDbLine
 10
126.4884943793734
 20
138.4855848564175
 30
0.0
 11
126.9884943792829
 21
137.985584856508
 31
0.0
  0
LINE
  5
8C47
330
1F
100
AcDbEntity
  8
0
  6
Continuous
 62
     7
100
AcDbLine
 10
134.248494379281
 20
131.2355848564612
 30
0.0
 11
134.248494379281
 21
129.735584856733
 31
0.0
  0
LINE
  5
8C48
330
1F
100
AcDbEntity
  8
0
  6
Continuous
 62
     7
100
AcDbLine
 10
134.3984943789997
 20
131.1489823160952
 30
0.0
 11
134.3984943789997
 21
129.822187397099
 31
0.0
  0
ARC
  5
8C49
330
1F
100
AcDbEntity
  8
0
  6
Continuous
 62
     7
100
AcDbCircle
 10
107.8884943795266
 20
127.2855848562456
 30
0.0
 40
0.1999999996250918
100
AcDbArc
 50
0.0000023581000844
 51
90.0
  0
ARC
  5
8C4A
330
1F
100
AcDbEntity
  8
0
  6
Continuous
 62
     7
100
AcDbCircle
 10
107.8884943795266
 20
133.6855848561019
 30
0.0
 40
0.1999999996250918
100
AcDbArc
 50
270.0
 51
359.9999976418999
  0
ARC
  5
8C4B
330
1F
100
AcDbEntity
  8
0
  6
Continuous
 62
     7
100
AcDbCircle
 10
127.188494378908
 20
127.2855848562456
 30
0.0
 40
0.1999999996250918
100
AcDbArc
 50
90.0
 51
179.9999976418999
  0
ARC
  5
8C4C
330
1F
100
AcDbEntity
  8
0
  6
Continuous
 62
     7
100
AcDbCircle
 10
127.188494378908
 20
133.6855848561019
 30
0.0
 40
0.1999999996250918
100
AcDbArc
 50
180.0000023581001
 51
270.0
  0
SPLINE
  5
8C59
330
1F
100
AcDbEntity
  8
0
  6
Continuous
 62
     7
100
AcDbSpline
210
0.0
220
0.0
230
1.0
 70
     8
 71
     3
 72
    17
 73
    13
 74
    11
 42
0.0000000001
 43
0.0000000001
 44
0.0000000001
 12
-0.4436919726794861
 22
0.8961793533550002
 32
0.0
 13
-0.4437057779101237
 23
-0.896172518351892
 33
0.0
 40
0.0
 40
0.0
 40
0.0
 40
0.0
 40
0.0491423007926387
 40
0.1629982876676454
 40
0.2809725580884054
 40
0.4026677938048067
 40
0.5265248765635664
 40
0.65035490998208
 40
0.7719875951183012
 40
0.8899029904642294
 40
1.003710546140734
 40
1.052805307324134
 40
1.052805307324134
 40
1.052805307324134
 40
1.052805307324134
 10
114.9246754421247
 20
134.0776313364187
 30
0.0
 10
114.9174074273311
 20
134.0923114415343
 30
0.0
 10
114.890183757838
 20
134.1394921868381
 30
0.0
 10
114.8268772391473
 20
134.2102636935484
 30
0.0
 10
114.7271725356211
 20
134.2753156879719
 30
0.0
 10
114.6117748628575
 20
134.315772130801
 30
0.0
 10
114.4883825056628
 20
134.329463191616
 30
0.0
 10
114.365016941024
 20
134.3157243394309
 30
0.0
 10
114.2496813118479
 20
134.275244538863
 30
0.0
 10
114.1500421247315
 20
134.210198538961
 30
0.0
 10
114.0867825034291
 20
134.139456473874
 30
0.0
 10
114.0595771773857
 20
134.092302524148
 30
0.0
 10
114.0523159676517
 20
134.0776367322255
 30
0.0
 11
114.9246754421247
 21
134.0776313364187
 31
0.0
 11
114.9001284393181
 21
134.1202037497918
 31
0.0
 11
114.8246336745522
 21
134.2054312467644
 31
0.0
 11
114.7261656706594
 21
134.2704080171573
 31
0.0
 11
114.6114592732004
 21
134.3110549454304
 31
0.0
 11
114.4883744588346
 21
134.3248645588235
 31
0.0
 11
114.365322197956
 21
134.3110074931503
 31
0.0
 11
114.2506888991563
 21
134.2703415749907
 31
0.0
 11
114.1522865923641
 21
134.2053721477379
 31
0.0
 11
114.0768373054514
 21
134.1201690677852
 31
0.0
 11
114.0523159676517
 21
134.0776367322255
 31
0.0
  0
SPLINE
  5
8C5A
330
1F
100
AcDbEntity
  8
0
  6
Continuous
 62
     7
100
AcDbSpline
210
0.0
220
0.0
230
1.0
 70
     8
 71
     3
 72
    19
 73
    15
 74
    13
 42
0.0000000001
 43
0.0000000001
 44
0.0000000001
 12
0.0
 22
-1.0
 32
0.0
 13
0.0
 23
1.0
 33
0.0
 40
0.0
 40
0.0
 40
0.0
 40
0.0
 40
0.1095736058729241
 40
0.2224749589086378
 40
0.338899483615167
 40
0.4587638624394792
 40
0.5812742854485094
 40
0.7052169406540595
 40
0.8291864002172532
 40
0.9517587114414707
 40
1.071681375309096
 40
1.18815461956008
 40
1.301090435958346
 40
1.41067404022278
 40
1.41067404022278
 40
1.41067404022278
 40
1.41067404022278
 10
114.9634943789644
 20
134.2413573589775
 30
0.0
 10
114.9634943789644
 20
134.2048328236866
 30
0.0
 10
114.9523173309837
 20
134.1302574712764
 30
0.0
 10
114.9039110900874
 20
134.0266170605089
 30
0.0
 10
114.8272531383028
 20
133.9372061540023
 30
0.0
 10
114.7278311315022
 20
133.8684878663998
 30
0.0
 10
114.6123740090612
 20
133.825191120012
 30
0.0
 10
114.4886075862975
 20
133.8103858678973
 30
0.0
 10
114.3648135487306
 20
133.8251393455377
 30
0.0
 10
114.2492933024091
 20
133.8684117864288
 30
0.0
 10
114.1498057861617
 20
133.9371371941816
 30
0.0
 10
114.0731018509208
 20
134.0265728614301
 30
0.0
 10
114.0246746947816
 20
134.1302392018231
 30
0.0
 10
114.0134943790519
 20
134.2048294908894
 30
0.0
 10
114.0134943790519
 20
134.2413573589775
 30
0.0
 11
114.9634943789644
 21
134.2413573589775
 31
0.0
 11
114.9474874640647
 21
134.132959232705
 31
0.0
 11
114.9001512366648
 21
134.0304604664059
 31
0.0
 11
114.8247060399987
 21
133.9417886430732
 31
0.0
 11
114.7263066338861
 21
133.8733413919404
 31
0.0
 11
114.6116720515403
 21
133.8301243087875
 31
0.0
 11
114.4886153820682
 21
133.8153311388143
 31
0.0
 11
114.365525597769
 21
133.8300733199808
 31
0.0
 11
114.2508173672765
 21
133.8732704649805
 31
0.0
 11
114.1523524444041
 21
133.9417255909598
 31
0.0
 11
114.0768617732712
 21
134.0304226889859
 31
0.0
 11
114.0295041903985
 21
134.1329495536118
 31
0.0
 11
114.0134943790519
 21
134.2413573589775
 31
0.0
  0
SPLINE
  5
8C5B
330
1F
100
AcDbEntity
  8
0
  6
Continuous
 62
     7
100
AcDbSpline
210
0.0
220
0.0
230
1.0
 70
     8
 71
     3
 72
    17
 73
    13
 74
    11
 42
0.0000000001
 43
0.0000000001
 44
0.0000000001
 12
0.4436919726794861
 22
-0.8961793533550002
 32
0.0
 13
0.4437057779101237
 23
0.896172518351892
 33
0.0
 40
0.0
 40
0.0
 40
0.0
 40
0.0
 40
0.0491423007924909
 40
0.1629982882291503
 40
0.280972557943016
 40
0.40266779474061
 40
0.5265248774044155
 40
0.6503549108233936
 40
0.771987595161387
 40
0.8899029905076947
 40
1.003710546184157
 40
1.052805307367443
 40
1.052805307367443
 40
1.052805307367443
 40
1.052805307367443
 10
114.0523133158913
 20
126.8935383767754
 30
0.0
 10
114.0595813306848
 20
126.8788582716599
 30
0.0
 10
114.0868050001934
 20
126.8316775261231
 30
0.0
 10
114.1501115196699
 20
126.7609060201696
 30
0.0
 10
114.2498162228368
 20
126.6958540250029
 30
0.0
 10
114.3652138955719
 20
126.6553975811901
 30
0.0
 10
114.4886062532579
 20
126.6417065219445
 30
0.0
 10
114.6119718176032
 20
126.6554453735278
 30
0.0
 10
114.72730744637
 20
126.6959251745772
 30
0.0
 10
114.8269466332908
 20
126.7609711742073
 30
0.0
 10
114.8902062545868
 20
126.8317132393232
 30
0.0
 10
114.9174115806305
 20
126.8788671890463
 30
0.0
 10
114.9246727903645
 20
126.8935329809688
 30
0.0
 11
114.0523133158913
 21
126.8935383767754
 31
0.0
 11
114.0768603186979
 21
126.8509659634025
 31
0.0
 11
114.1523550843107
 21
126.7657384664297
 31
0.0
 11
114.2508230873566
 21
126.700761696037
 31
0.0
 11
114.3655294856627
 21
126.6601147669173
 31
0.0
 11
114.4886143000279
 21
126.6463051543707
 31
0.0
 11
114.611666560907
 21
126.660162220044
 31
0.0
 11
114.7262998588596
 21
126.7008281382036
 31
0.0
 11
114.8247021656523
 21
126.7657975654565
 31
0.0
 11
114.9001514525651
 21
126.8510006454091
 31
0.0
 11
114.9246727903645
 21
126.8935329809688
 31
0.0
  0
SPLINE
  5
8C5C
330
1F
100
AcDbEntity
  8
0
  6
Continuous
 62
     7
100
AcDbSpline
210
0.0
220
0.0
230
1.0
 70
     8
 71
     3
 72
    19
 73
    15
 74
    13
 42
0.0000000001
 43
0.0000000001
 44
0.0000000001
 12
0.0
 22
1.0
 32
0.0
 13
0.0
 23
-1.0
 33
0.0
 40
0.0
 40
0.0
 40
0.0
 40
0.0
 40
0.1095736058729803
 40
0.2224749589085471
 40
0.3388994836151196
 40
0.4587638631343206
 40
0.5812742853512583
 40
0.7052169413978541
 40
0.8291864001199849
 40
0.9517587124348128
 40
1.071681375124366
 40
1.188154619375221
 40
1.301090436542133
 40
1.410674039969025
 40
1.410674039969025
 40
1.410674039969025
 40
1.410674039969025
 10
114.0134943790519
 20
126.7298123542167
 30
0.0
 10
114.0134943790519
 20
126.7663368895077
 30
0.0
 10
114.024671427026
 20
126.8409122419282
 30
0.0
 10
114.0730776679526
 20
126.9445526526473
 30
0.0
 10
114.1497356197722
 20
127.0339635595179
 30
0.0
 10
114.2491576270637
 20
127.102681846311
 30
0.0
 10
114.3646147494111
 20
127.1459785934932
 30
0.0
 10
114.4883811720181
 20
127.1607838452099
 30
0.0
 10
114.61217520997
 20
127.1460303676804
 30
0.0
 10
114.7276954556874
 20
127.1027579260383
 30
0.0
 10
114.8271829721614
 20
127.0340325188334
 30
0.0
 10
114.9038869073599
 20
126.9445968515798
 30
0.0
 10
114.9523140628968
 20
126.84093051098
 30
0.0
 10
114.9634943789644
 20
126.7663402220257
 30
0.0
 10
114.9634943789644
 20
126.7298123542167
 30
0.0
 11
114.0134943790519
 21
126.7298123542167
 31
0.0
 11
114.0295012939515
 21
126.8382104804892
 31
0.0
 11
114.0768375213512
 21
126.9407092467883
 31
0.0
 11
114.1522827180173
 21
127.0293810701211
 31
0.0
 11
114.2506821249764
 21
127.0978283212538
 31
0.0
 11
114.3653167064757
 21
127.1410454044067
 31
0.0
 11
114.4883733767948
 21
127.1558385743801
 31
0.0
 11
114.611463160247
 21
127.1410963932135
 31
0.0
 11
114.726171391586
 21
127.0978992473671
 31
0.0
 11
114.8246363136121
 21
127.0294441222343
 31
0.0
 11
114.900126984745
 21
126.9407470242084
 31
0.0
 11
114.9474845676177
 21
126.8382201587359
 31
0.0
 11
114.9634943789644
 21
126.7298123542167
 31
0.0
  0
SPLINE
  5
8C5D
330
1F
100
AcDbEntity
  8
0
  6
Continuous
 62
     7
100
AcDbSpline
210
0.0
220
0.0
230
1.0
 70
     8
 71
     3
 72
    19
 73
    15
 74
    13
 42
0.0000000001
 43
0.0000000001
 44
0.0000000001
 12
0.0
 22
1.0
 32
0.0
 13
0.0
 23
-1.0
 33
0.0
 40
0.0
 40
0.0
 40
0.0
 40
0.0
 40
0.1095001487417555
 40
0.2210539346381942
 40
0.3341966962511861
 40
0.4517304830816168
 40
0.5733461158940197
 40
0.6970665726148378
 40
0.8208217929223934
 40
0.9424588966966396
 40
1.06012516682254
 40
1.17337734657143
 40
1.284834216570612
 40
1.393938194719247
 40
1.393938194719247
 40
1.393938194719247
 40
1.393938194719247
 10
114.0134943790519
 20
134.2413573589775
 30
0.0
 10
114.0134943790519
 20
134.2778574085581
 30
0.0
 10
114.0246136378771
 20
134.3520148711085
 30
0.0
 10
114.0736201038809
 20
134.4537799491015
 30
0.0
 10
114.1507944473528
 20
134.539700171743
 30
0.0
 10
114.2501484764774
 20
134.6045714055226
 30
0.0
 10
114.3653090023777
 20
134.6450197844676
 30
0.0
 10
114.4886052964802
 20
134.6587385225072
 30
0.0
 10
114.6119043578064
 20
134.6449713198728
 30
0.0
 10
114.7271064715762
 20
134.6044484408987
 30
0.0
 10
114.8264943524748
 20
134.5394600699546
 30
0.0
 10
114.9036139782584
 20
134.4534192603168
 30
0.0
 10
114.9524421763063
 20
134.3517135410394
 30
0.0
 10
114.9634943789644
 20
134.2777253516938
 30
0.0
 10
114.9634943789644
 20
134.2413573589775
 30
0.0
 11
114.0134943790519
 21
134.2413573589775
 31
0.0
 11
114.029735874805
 21
134.3496463075835
 31
0.0
 11
114.0777548076379
 21
134.4503360748759
 31
0.0
 11
114.1529406686107
 21
134.5348841133819
 31
0.0
 11
114.2510386080498
 21
134.5996219332748
 31
0.0
 11
114.3656473856888
 21
134.6403059624811
 31
0.0
 11
114.4885929454016
 21
134.6541313289544
 31
0.0
 11
114.6115676414537
 21
134.6402540567344
 31
0.0
 11
114.7261775714064
 21
134.5995091310281
 31
0.0
 11
114.8243416160387
 21
134.5346310032286
 31
0.0
 11
114.8995106122584
 21
134.4499216281559
 31
0.0
 11
114.9473700737311
 21
134.34926326627
 31
0.0
 11
114.9634943789644
 21
134.2413573589775
 31
0.0
  0
SPLINE
  5
8C5E
330
1F
100
AcDbEntity
  8
0
  6
Continuous
 62
     7
100
AcDbSpline
210
0.0
220
0.0
230
1.0
 70
     8
 71
     3
 72
    19
 73
    15
 74
    13
 42
0.0000000001
 43
0.0000000001
 44
0.0000000001
 12
0.0
 22
-1.0
 32
0.0
 13
0.0
 23
1.0
 33
0.0
 40
0.0
 40
0.0
 40
0.0
 40
0.0
 40
0.1095447790714489
 40
0.221165895531176
 40
0.3342935246747116
 40
0.4517816027151059
 40
0.5733833570556481
 40
0.6970846016789913
 40
0.8208211061263083
 40
0.9424415519329549
 40
1.060059636905282
 40
1.17327152965269
 40
1.284801195489484
 40
1.3939378330791
 40
1.3939378330791
 40
1.3939378330791
 40
1.3939378330791
 10
114.9634943789644
 20
126.7298123542167
 30
0.0
 10
114.9634943789644
 20
126.6932974278595
 30
0.0
 10
114.9523648164259
 20
126.6191020776538
 30
0.0
 10
114.9033217038535
 20
126.5173161518023
 30
0.0
 10
114.8261248316679
 20
126.4314143859885
 30
0.0
 10
114.7267828387712
 20
126.3665729699092
 30
0.0
 10
114.611644115969
 20
126.3261431915211
 30
0.0
 10
114.4883647938688
 20
126.3124326150625
 30
0.0
 10
114.3650845051557
 20
126.3261997554602
 30
0.0
 10
114.2499084834893
 20
126.3667113572958
 30
0.0
 10
114.1505456946654
 20
126.4316713856309
 30
0.0
 10
114.0734130430855
 20
126.5176912990839
 30
0.0
 10
114.0245552213245
 20
126.6194097236692
 30
0.0
 10
114.0134943790519
 20
126.6934334750202
 30
0.0
 10
114.0134943790519
 20
126.7298123542167
 30
0.0
 11
114.9634943789644
 21
126.7298123542167
 31
0.0
 11
114.9472396548913
 21
126.6214802603242
 31
0.0
 11
114.8991710608249
 21
126.5207395838118
 31
0.0
 11
114.8239739874454
 21
126.4362217713058
 31
0.0
 11
114.7259038398395
 21
126.3715248267861
 31
0.0
 11
114.6113046303806
 21
126.3308553314598
 31
0.0
 11
114.4883774568815
 21
126.3170383876266
 31
0.0
 11
114.3654215830754
 21
126.3309155497798
 31
0.0
 11
114.2508266433565
 21
126.3716529113663
 31
0.0
 11
114.1526969945572
 21
126.4364956899857
 31
0.0
 11
114.0775372676443
 21
126.5211594254916
 31
0.0
 11
114.0296283295116
 21
126.6218748662575
 31
0.0
 11
114.0134943790519
 21
126.7298123542167
 31
0.0
  0
SPLINE
  5
8C5F
330
1F
100
AcDbEntity
  8
0
  6
Continuous
 62
     7
100
AcDbSpline
210
0.0
220
0.0
230
1.0
 70
     8
 71
     3
 72
    17
 73
    13
 74
    11
 42
0.0000000001
 43
0.0000000001
 44
0.0000000001
 12
0.4436919726794861
 22
-0.8961793533550002
 32
0.0
 13
0.4437057779101237
 23
0.896172518351892
 33
0.0
 40
0.0
 40
0.0
 40
0.0
 40
0.0
 40
0.0491423007924909
 40
0.1629982876676253
 40
0.2809725580883227
 40
0.4026677940872687
 40
0.5265248767516391
 40
0.6503549101706172
 40
0.7719875953064099
 40
0.8899029906523383
 40
1.0037105463288
 40
1.052805307512313
 40
1.052805307512313
 40
1.052805307512313
 40
1.052805307512313
 10
120.1523133163101
 20
126.8935383767754
 30
0.0
 10
120.1595813311037
 20
126.8788582716599
 30
0.0
 10
120.1868050006002
 20
126.8316775263667
 30
0.0
 10
120.2501115192596
 20
126.7609060195537
 30
0.0
 10
120.3498162229995
 20
126.6958540255215
 30
0.0
 10
120.4652138953206
 20
126.6553975809893
 30
0.0
 10
120.5886062528643
 20
126.6417065219609
 30
0.0
 10
120.7119718173948
 20
126.6554453736637
 30
0.0
 10
120.8273074465909
 20
126.6959251743572
 30
0.0
 10
120.926946633702
 20
126.7609711742266
 30
0.0
 10
120.9902062550055
 20
126.8317132393212
 30
0.0
 10
121.0174115810491
 20
126.8788671890463
 30
0.0
 10
121.0246727907831
 20
126.8935329809688
 30
0.0
 11
120.1523133163101
 21
126.8935383767754
 31
0.0
 11
120.1768603191167
 21
126.8509659634025
 31
0.0
 11
120.2523550838827
 21
126.7657384664297
 31
0.0
 11
120.3508230877754
 21
126.700761696037
 31
0.0
 11
120.4655294852343
 21
126.6601147669173
 31
0.0
 11
120.5886142996
 21
126.6463051543707
 31
0.0
 11
120.7116665604791
 21
126.660162220044
 31
0.0
 11
120.8262998592783
 21
126.7008281382036
 31
0.0
 11
120.9247021660705
 21
126.7657975654565
 31
0.0
 11
121.0001514529832
 21
126.8510006454091
 31
0.0
 11
121.0246727907831
 21
126.8935329809688
 31
0.0
  0
SPLINE
  5
8C60
330
1F
100
AcDbEntity
  8
0
  6
Continuous
 62
     7
100
AcDbSpline
210
0.0
220
0.0
230
1.0
 70
     8
 71
     3
 72
    19
 73
    15
 74
    13
 42
0.0000000001
 43
0.0000000001
 44
0.0000000001
 12
0.0
 22
1.0
 32
0.0
 13
0.0
 23
-1.0
 33
0.0
 40
0.0
 40
0.0
 40
0.0
 40
0.0
 40
0.1095736057493187
 40
0.2224749591398986
 40
0.3388994838463237
 40
0.4587638626707901
 40
0.5812742856798203
 40
0.7052169408857293
 40
0.8291864004483656
 40
0.9517587119712052
 40
1.071681375355618
 40
1.188154619606178
 40
1.301090436773281
 40
1.410674040200173
 40
1.410674040200173
 40
1.410674040200173
 40
1.410674040200173
 10
120.1134943794705
 20
126.7298123542167
 30
0.0
 10
120.1134943794705
 20
126.7663368894665
 30
0.0
 10
120.1246714259876
 20
126.8409122422522
 30
0.0
 10
120.17307766866
 20
126.9445526524475
 30
0.0
 10
120.249735620023
 20
127.0339635592348
 30
0.0
 10
120.3491576269605
 20
127.1026818467769
 30
0.0
 10
120.4646147493752
 20
127.1459785932083
 30
0.0
 10
120.5883811721024
 20
127.1607838452094
 30
0.0
 10
120.7121752099416
 20
127.1460303679679
 30
0.0
 10
120.8276954555542
 20
127.1027579255611
 30
0.0
 10
120.9271829725216
 20
127.0340325191577
 30
0.0
 10
121.0038869077537
 20
126.9445968515418
 30
0.0
 10
121.0523140633222
 20
126.8409305109904
 30
0.0
 10
121.063494379383
 20
126.7663402220257
 30
0.0
 10
121.063494379383
 20
126.7298123542167
 30
0.0
 11
120.1134943794705
 21
126.7298123542167
 31
0.0
 11
120.1295012935236
 21
126.8382104804892
 31
0.0
 11
120.17683752177
 21
126.9407092467883
 31
0.0
 11
120.2522827184359
 21
127.0293810701211
 31
0.0
 11
120.3506821245487
 21
127.0978283212538
 31
0.0
 11
120.4653167068945
 21
127.1410454044067
 31
0.0
 11
120.5883733763669
 21
127.1558385743801
 31
0.0
 11
120.7114631606656
 21
127.1410963932135
 31
0.0
 11
120.8261713911584
 21
127.0978992473671
 31
0.0
 11
120.9246363140308
 21
127.0294441222343
 31
0.0
 11
121.0001269851632
 21
126.9407470242084
 31
0.0
 11
121.0474845680364
 21
126.8382201587359
 31
0.0
 11
121.063494379383
 21
126.7298123542167
 31
0.0
  0
SPLINE
  5
8C61
330
1F
100
AcDbEntity
  8
0
  6
Continuous
 62
     7
100
AcDbSpline
210
0.0
220
0.0
230
1.0
 70
     8
 71
     3
 72
    17
 73
    13
 74
    11
 42
0.0000000001
 43
0.0000000001
 44
0.0000000001
 12
-0.4436919726794861
 22
0.8961793533550002
 32
0.0
 13
-0.4437057779101237
 23
-0.896172518351892
 33
0.0
 40
0.0
 40
0.0
 40
0.0
 40
0.0
 40
0.049142300369685
 40
0.1629982878060659
 40
0.2809725575201841
 40
0.4026677940342689
 40
0.5265248767930287
 40
0.65035491021222
 40
0.7719875945502133
 40
0.8899029898961416
 40
1.003710545572646
 40
1.052805306756046
 40
1.052805306756046
 40
1.052805306756046
 40
1.052805306756046
 10
121.0246754416966
 20
134.0776313364187
 30
0.0
 10
121.0174074269656
 20
134.092311441408
 30
0.0
 10
120.9901837588621
 20
134.1394921875998
 30
0.0
 10
120.9268772384761
 20
134.210263692782
 30
0.0
 10
120.8271725358573
 20
134.2753156885326
 30
0.0
 10
120.7117748625861
 20
134.3157721305888
 30
0.0
 10
120.5883825052748
 20
134.3294631916354
 30
0.0
 10
120.4650169408141
 20
134.315724339566
 30
0.0
 10
120.3496813120691
 20
134.2752445386431
 30
0.0
 10
120.2500421251429
 20
134.2101985389802
 30
0.0
 10
120.1867825038485
 20
134.1394564738718
 30
0.0
 10
120.1595771778044
 20
134.092302524148
 30
0.0
 10
120.1523159680703
 20
134.0776367322255
 30
0.0
 11
121.0246754416966
 21
134.0776313364187
 31
0.0
 11
121.0001284397367
 21
134.1202037497918
 31
0.0
 11
120.9246336741242
 21
134.2054312467644
 31
0.0
 11
120.826165671078
 21
134.2704080171573
 31
0.0
 11
120.7114592727727
 21
134.3110549454304
 31
0.0
 11
120.588374458407
 21
134.3248645588235
 31
0.0
 11
120.4653221975276
 21
134.3110074931503
 31
0.0
 11
120.350688899575
 21
134.2703415749907
 31
0.0
 11
120.2522865927827
 21
134.2053721477379
 31
0.0
 11
120.17683730587
 21
134.1201690677852
 31
0.0
 11
120.1523159680703
 21
134.0776367322255
 31
0.0
  0
SPLINE
  5
8C62
330
1F
100
AcDbEntity
  8
0
  6
Continuous
 62
     7
100
AcDbSpline
210
0.0
220
0.0
230
1.0
 70
     8
 71
     3
 72
    19
 73
    15
 74
    13
 42
0.0000000001
 43
0.0000000001
 44
0.0000000001
 12
0.0
 22
-1.0
 32
0.0
 13
0.0
 23
1.0
 33
0.0
 40
0.0
 40
0.0
 40
0.0
 40
0.0
 40
0.1095736058730071
 40
0.2224749589084825
 40
0.3388994836148643
 40
0.4587638631342844
 40
0.5812742861433146
 40
0.7052169413492032
 40
0.8291864000713273
 40
0.9517587120879584
 40
1.071681375260538
 40
1.188154619511374
 40
1.301090435909926
 40
1.410674040174294
 40
1.410674040174294
 40
1.410674040174294
 40
1.410674040174294
 10
121.063494379383
 20
134.2413573589775
 30
0.0
 10
121.063494379383
 20
134.2048328236866
 30
0.0
 10
121.0523173314075
 20
134.1302574712679
 30
0.0
 10
121.0039110904839
 20
134.0266170605409
 30
0.0
 10
120.9272531386557
 20
133.9372061536999
 30
0.0
 10
120.8278311311783
 20
133.8684878666402
 30
0.0
 10
120.7123740086711
 20
133.825191119994
 30
0.0
 10
120.5886075861162
 20
133.8103858678399
 30
0.0
 10
120.464813548698
 20
133.8251393458493
 30
0.0
 10
120.3492933022769
 20
133.8684117859453
 30
0.0
 10
120.2498057865214
 20
133.9371371945074
 30
0.0
 10
120.1731018513158
 20
134.0265728613923
 30
0.0
 10
120.124674695206
 20
134.1302392018333
 30
0.0
 10
120.1134943794705
 20
134.2048294908894
 30
0.0
 10
120.1134943794705
 20
134.2413573589775
 30
0.0
 11
121.063494379383
 21
134.2413573589775
 31
0.0
 11
121.0474874644827
 21
134.132959232705
 31
0.0
 11
121.0001512370834
 21
134.0304604664059
 31
0.0
 11
120.9247060404175
 21
133.9417886430732
 31
0.0
 11
120.8263066334582
 21
133.8733413919404
 31
0.0
 11
120.7116720511124
 21
133.8301243087875
 31
0.0
 11
120.58861538164
 21
133.8153311388143
 31
0.0
 11
120.4655255981878
 21
133.8300733199808
 31
0.0
 11
120.3508173668486
 21
133.8732704649805
 31
0.0
 11
120.2523524448227
 21
133.9417255909598
 31
0.0
 11
120.17686177369
 21
134.0304226889859
 31
0.0
 11
120.1295041908166
 21
134.1329495536118
 31
0.0
 11
120.1134943794705
 21
134.2413573589775
 31
0.0
  0
SPLINE
  5
8C63
330
1F
100
AcDbEntity
  8
0
  6
Continuous
 62
     7
100
AcDbSpline
210
0.0
220
0.0
230
1.0
 70
     8
 71
     3
 72
    19
 73
    15
 74
    13
 42
0.0000000001
 43
0.0000000001
 44
0.0000000001
 12
0.0
 22
-1.0
 32
0.0
 13
0.0
 23
1.0
 33
0.0
 40
0.0
 40
0.0
 40
0.0
 40
0.0
 40
0.1095001487415868
 40
0.2210539346381282
 40
0.3341966968840131
 40
0.4517304832480895
 40
0.5733461160604923
 40
0.6970665727807264
 40
0.8208217930888277
 40
0.9424588968626645
 40
1.060125166988755
 40
1.173377346737376
 40
1.284834216736704
 40
1.393938194885339
 40
1.393938194885339
 40
1.393938194885339
 40
1.393938194885339
 10
121.063494379383
 20
126.7298123542167
 30
0.0
 10
121.063494379383
 20
126.6933123046362
 30
0.0
 10
121.0523751206144
 20
126.6191548420295
 30
0.0
 10
121.0033686542572
 20
126.5173897641026
 30
0.0
 10
120.9261943116573
 20
126.4314695404922
 30
0.0
 10
120.8268402816249
 20
126.3665983078706
 30
0.0
 10
120.7116797561081
 20
126.3261499286571
 30
0.0
 10
120.5883834619409
 20
126.3124311907062
 30
0.0
 10
120.4650844006321
 20
126.3261983933162
 30
0.0
 10
120.3498822868578
 20
126.3667212722972
 30
0.0
 10
120.2504944059602
 20
126.4317096432391
 30
0.0
 10
120.1733747801768
 20
126.5177504528777
 30
0.0
 10
120.1245465821285
 20
126.6194561721547
 30
0.0
 10
120.1134943794705
 20
126.6934443615005
 30
0.0
 10
120.1134943794705
 20
126.7298123542167
 30
0.0
 11
121.063494379383
 21
126.7298123542167
 31
0.0
 11
121.0472528836299
 21
126.621523405611
 31
0.0
 11
120.9992339507969
 21
126.5208336383184
 31
0.0
 11
120.9240480898239
 21
126.4362855989657
 31
0.0
 11
120.8259501503848
 21
126.3715477799195
 31
0.0
 11
120.7113413727458
 21
126.3308637507132
 31
0.0
 11
120.5883958130336
 21
126.3170383842401
 31
0.0
 11
120.4654211169809
 21
126.3309156564598
 31
0.0
 11
120.3508111870286
 21
126.3716605821662
 31
0.0
 11
120.2526471423961
 21
126.4365387099657
 31
0.0
 11
120.1774781461768
 21
126.5212480850383
 31
0.0
 11
120.1296186847037
 21
126.6219064469243
 31
0.0
 11
120.1134943794705
 21
126.7298123542167
 31
0.0
  0
SPLINE
  5
8C64
330
1F
100
AcDbEntity
  8
0
  6
Continuous
 62
     7
100
AcDbSpline
210
0.0
220
0.0
230
1.0
 70
     8
 71
     3
 72
    19
 73
    15
 74
    13
 42
0.0000000001
 43
0.0000000001
 44
0.0000000001
 12
0.0
 22
1.0
 32
0.0
 13
0.0
 23
-1.0
 33
0.0
 40
0.0
 40
0.0
 40
0.0
 40
0.0
 40
0.1095447790715389
 40
0.2211658947670171
 40
0.3342935245432379
 40
0.4517816025832545
 40
0.5733833569240492
 40
0.697084601547386
 40
0.8208211059944707
 40
0.9424415518010983
 40
1.060059637240233
 40
1.173271529354547
 40
1.284801195191238
 40
1.393937832780888
 40
1.393937832780888
 40
1.393937832780888
 40
1.393937832780888
 10
120.1134943794705
 20
134.2413573589775
 30
0.0
 10
120.1134943794705
 20
134.2778722853347
 30
0.0
 10
120.1246239417743
 20
134.3520676353942
 30
0.0
 10
120.1736670551181
 20
134.4538535607358
 30
0.0
 10
120.2508639264106
 20
134.5397553272324
 30
0.0
 10
120.3502059197147
 20
134.6045967432457
 30
0.0
 10
120.4653446424482
 20
134.6450265216795
 30
0.0
 10
120.5886239645835
 20
134.6587370981473
 30
0.0
 10
120.7119042532269
 20
134.6449699576654
 30
0.0
 10
120.827080275278
 20
134.6044583560967
 30
0.0
 10
120.9264430631936
 20
134.5394983266051
 30
0.0
 10
121.0035757156455
 20
134.4534784141193
 30
0.0
 10
121.0524335370535
 20
134.351759989469
 30
0.0
 10
121.063494379383
 20
134.2777362381741
 30
0.0
 10
121.063494379383
 20
134.2413573589775
 30
0.0
 11
120.1134943794705
 21
134.2413573589775
 31
0.0
 11
120.1297491035438
 21
134.3496894528701
 31
0.0
 11
120.17781769761
 21
134.4504301285359
 31
0.0
 11
120.2530147709895
 21
134.5349479418887
 31
0.0
 11
120.3510849185951
 21
134.599644886408
 31
0.0
 11
120.4656841280542
 21
134.6403143817344
 31
0.0
 11
120.5886113015533
 21
134.6541313255676
 31
0.0
 11
120.7115671753592
 21
134.6402541634144
 31
0.0
 11
120.8261621150781
 21
134.599516801828
 31
0.0
 11
120.9242917638774
 21
134.5346740223618
 31
0.0
 11
120.9994514907903
 21
134.4500102877025
 31
0.0
 11
121.047360428923
 21
134.3492948469367
 31
0.0
 11
121.063494379383
 21
134.2413573589775
 31
0.0
  0
LINE
  5
8C68
330
1F
100
AcDbEntity
  8
0
370
     0
100
AcDbLine
 10
59.10901875700886
 20
130.9855848565971
 30
0.0
 11
62.95901875729012
 21
130.9855848565971
 31
0.0
  0
LINE
  5
8C69
330
1F
100
AcDbEntity
  8
0
370
     0
100
AcDbLine
 10
59.10901875700886
 20
129.9855848565971
 30
0.0
 11
62.95901875729012
 21
129.9855848565971
 31
0.0
  0
LINE
  5
8C6A
330
1F
100
AcDbEntity
  8
0
  6
Continuous
 62
     7
100
AcDbLine
 10
59.10901875700884
 20
130.9855848565971
 30
0.0
 11
59.10901875700884
 21
129.9855848565971
 31
0.0
  0
LINE
  5
8C6B
330
1F
100
AcDbEntity
  8
0
  6
Continuous
 62
     7
100
AcDbLine
 10
58.95901875729009
 20
131.2355848564612
 30
0.0
 11
58.95901875729004
 21
129.735584856733
 31
0.0
  0
LINE
  5
8C6C
330
1F
100
AcDbEntity
  8
0
370
     0
100
AcDbLine
 10
59.10901875700884
 20
130.9855848565971
 30
0.0
 11
58.95901875729009
 21
131.2355848564612
 31
0.0
  0
LINE
  5
8C6D
330
1F
100
AcDbEntity
  8
0
370
     0
100
AcDbLine
 10
59.10901875700884
 20
129.9855848565971
 30
0.0
 11
58.95901875729004
 21
129.735584856733
 31
0.0
  0
DIMENSION
  5
8C6E
330
1F
100
AcDbEntity
  8
Dimension
370
     0
100
AcDbDimension
  2
*D1
 10
56.60901875729203
 20
106.2749868502302
 30
0.0
 11
47.15901875722638
 21
107.5408463318128
 31
0.0
 70
    32
 71
     5
 42
18.90000000013128
  3
STANDARD
100
AcDbAlignedDimension
 13
37.70901875716075
 23
122.9856286327395
 33
0.0
 14
56.60901875729203
 24
122.9856286327395
 34
0.0
100
AcDbRotatedDimension
1001
ACAD
1000
DSTYLE
1002
{
1070
   147
1040
0.5
1070
    72
1070
     0
1070
    71
1070
     0
1070
   271
1070
     0
1002
}
  0
DIMENSION
  5
8C96
330
1F
100
AcDbEntity
  8
Dimension
370
     0
100
AcDbDimension
  2
*D2
 10
35.40901875716074
 20
106.2749868502302
 30
0.0
 11
29.09442121282241
 21
107.5413579279928
 31
0.0
 70
    32
 71
     5
 42
2.300000000000011
  3
STANDARD
100
AcDbAlignedDimension
 13
37.70901875716075
 23
122.9855848566862
 33
0.0
 14
35.40901875716074
 24
129.822187397099
 34
0.0
100
AcDbRotatedDimension
1001
ACAD
1000
DSTYLE
1002
{
1070
   272
1070
     1
1070
    47
1040
0.3
1070
    48
1040
0.3
1070
   271
1070
     1
1002
}
  0
DIMENSION
  5
8CDF
330
1F
100
AcDbEntity
  8
Dimension
370
     0
100
AcDbDimension
  2
*D3
 10
63.10901875700887
 20
106.2749868502302
 30
0.0
 11
67.91491916628581
 21
107.5408463318128
 31
0.0
 70
    32
 71
     5
 42
6.499999999716834
  3
STANDARD
100
AcDbAlignedDimension
 13
56.60901875729203
 23
122.9855848566862
 33
0.0
 14
63.10901875700887
 24
130.0721841553866
 34
0.0
100
AcDbRotatedDimension
1001
ACAD
1000
DSTYLE
1002
{
1070
    47
1040
0.3
1070
    48
1040
0.3
1070
   271
1070
     1
1070
   272
1070
     1
1002
}
  0
DIMENSION
  5
8D0B
330
1F
100
AcDbEntity
  8
Dimension
370
     0
100
AcDbDimension
  2
*D4
 10
63.10901875700887
 20
116.9891302346631
 30
0.0
 11
61.10901875700887
 21
118.2391302346631
 31
0.0
 70
    32
 71
     5
 42
4.0
  3
STANDARD
100
AcDbAlignedDimension
 13
59.10901875700886
 23
129.9855848565971
 33
0.0
 14
63.10901875700887
 24
130.0721841553866
 34
0.0
100
AcDbRotatedDimension
1001
ACAD
1000
DSTYLE
1002
{
1070
   147
1040
0.5
1070
    72
1070
     0
1070
    71
1070
     0
1070
   271
1070
     0
1002
}
  0
DIMENSION
  5
8D19
330
1F
100
AcDbEntity
  8
Dimension
370
     0
100
AcDbDimension
  2
*D5
 10
56.60901875729203
 20
112.1645695215353
 30
0.0
 11
52.83275682004783
 21
113.4176390986158
 31
0.0
 70
    32
 71
     5
 42
0.9999999998186694
  3
STANDARD
100
AcDbAlignedDimension
 13
57.6090187571107
 23
127.6856337970625
 33
0.0
 14
56.60901875729203
 24
122.9855848566862
 34
0.0
100
AcDbRotatedDimension
1001
ACAD
1000
DSTYLE
1002
{
1070
   147
1040
0.5
1070
    72
1070
     0
1070
    71
1070
     0
1070
   271
1070
     0
1002
}
  0
DIMENSION
  5
8DD0
330
1F
100
AcDbEntity
  8
Dimension
370
     0
100
AcDbDimension
  2
*D6
 10
69.9389255356546
 20
130.9855848565971
 30
0.0
 11
69.93892553565459
 21
145.0575159353132
 31
0.0
 70
   160
 71
     5
  3
STANDARD
100
AcDbAlignedDimension
 13
62.95901875729009
 23
129.9855848565971
 33
0.0
 14
62.95900660593011
 24
130.9855848565971
 34
0.0
 50
90.0
100
AcDbRotatedDimension
1001
ACAD
1000
DSTYLE
1002
{
1070
   284
1070
     8
1070
   147
1040
0.5
1070
    72
1070
     0
1070
    71
1070
     1
1070
    47
1040
0.0
1070
    48
1040
0.006000000006
1070
   272
1070
     3
1070
     3
1000
Ø <>
1070
   271
1070
     0
1002
}
  0
DIMENSION
  5
8DDE
330
1F
100
AcDbEntity
  8
Dimension
370
     0
100
AcDbDimension
  2
*D7
 10
75.88797238429956
 20
133.4855848564768
 30
0.0
 11
75.88797238429954
 21
145.2193477336545
 31
0.0
 70
   160
 71
     5
 42
5.999999999759424
  3
STANDARD
100
AcDbAlignedDimension
 13
57.40901875748571
 23
127.4855848567174
 33
0.0
 14
57.40901875748571
 24
133.4855848564768
 34
0.0
 50
90.0
100
AcDbRotatedDimension
1001
ACAD
1000
DSTYLE
1002
{
1070
     3
1000
Ø <>
1070
    47
1040
0.0
1070
    48
1040
0.018
1070
   271
1070
     0
1070
   272
1070
     3
1070
   284
1070
     8
1002
}
  0
DIMENSION
  5
8DEC
330
1F
100
AcDbEntity
  8
Dimension
370
     0
100
AcDbDimension
  2
*D8
 10
28.12219612379472
 20
132.4105848567987
 30
0.0
 11
28.1221961237947
 21
143.6387555851213
 31
0.0
 70
   160
 71
     5
 42
3.850000000403042
  3
STANDARD
100
AcDbAlignedDimension
 13
35.90901875714829
 23
128.5605848563956
 33
0.0
 14
35.90901875714829
 24
132.4105848567987
 34
0.0
 50
90.0
100
AcDbRotatedDimension
1001
ACAD
1000
DSTYLE
1002
{
1070
     3
1000
Ø <>
1070
   147
1040
0.5
1070
    72
1070
     0
1070
    71
1070
     0
1070
   271
1070
     1
1002
}
  0
DIMENSION
  5
8DFA
330
1F
100
AcDbEntity
  8
Dimension
370
     0
100
AcDbDimension
  2
*D9
 10
21.06052096942681
 20
133.4855848564768
 30
0.0
 11
21.06052096942679
 21
144.9986597323324
 31
0.0
 70
   160
 71
     5
 42
5.999999999759424
  3
STANDARD
100
AcDbAlignedDimension
 13
36.90901875696707
 23
127.4855848567174
 33
0.0
 14
36.90901875696707
 24
133.4855848564768
 34
0.0
 50
90.0
100
AcDbRotatedDimension
1001
ACAD
1000
DSTYLE
1002
{
1070
   284
1070
     8
1070
   147
1040
0.5
1070
    72
1070
     0
1070
    71
1070
     1
1070
   272
1070
     3
1070
    47
1040
0.0
1070
    48
1040
0.018
1070
     3
1000
Ø <>
1070
   271
1070
     0
1002
}
  0
DIMENSION
  5
8EBA
330
1F
100
AcDbEntity
  8
Dimension
370
     0
100
AcDbDimension
  2
*D10
 10
82.64829443776044
 20
138.4855848564174
 30
0.0
 11
82.64829443776042
 21
143.9048067264751
 31
0.0
 70
   160
 71
     5
 42
15.99999999964068
  3
STANDARD
100
AcDbAlignedDimension
 13
56.10901875738253
 23
122.4855848567768
 33
0.0
 14
56.10901875738253
 24
138.4855848564175
 34
0.0
 50
90.0
100
AcDbRotatedDimension
1001
ACAD
1000
DSTYLE
1002
{
1070
     3
1000
Ø <>
1070
    71
1070
     0
1070
   271
1070
     0
1002
}
  0
DIMENSION
  5
8FE8
330
1F
100
AcDbEntity
  8
Dimension
370
     0
100
AcDbDimension
  2
*D12
 10
126.9884943792829
 20
106.2749868502302
 30
0.0
 11
117.5384943792172
 21
107.5408463318128
 31
0.0
 70
    32
 71
     5
 42
18.90000000013128
  3
STANDARD
100
AcDbAlignedDimension
 13
108.0884943791516
 23
122.9856286327395
 33
0.0
 14
126.9884943792829
 24
122.9856286327395
 34
0.0
100
AcDbRotatedDimension
1001
ACAD
1000
DSTYLE
1002
{
1070
   147
1040
0.5
1070
    72
1070
     0
1070
    71
1070
     0
1070
   271
1070
     0
1002
}
  0
DIMENSION
  5
8FE9
330
1F
100
AcDbEntity
  8
Dimension
370
     0
100
AcDbDimension
  2
*D13
 10
100.7085051278487
 20
106.2749868502302
 30
0.0
 11
104.3984997535001
 21
107.5342979007077
 31
0.0
 70
    32
 71
     5
 42
7.379989251302887
  3
STANDARD
100
AcDbAlignedDimension
 13
108.0884943791516
 23
122.9855848566862
 33
0.0
 14
100.7085051278487
 24
129.822206027999
 34
0.0
100
AcDbRotatedDimension
1001
ACAD
1000
DSTYLE
1002
{
1070
   272
1070
     1
1070
    47
1040
0.3
1070
    48
1040
0.3
1070
   271
1070
     1
1002
}
  0
DIMENSION
  5
8FEA
330
1F
100
AcDbEntity
  8
Dimension
370
     0
100
AcDbDimension
  2
*D14
 10
134.3984836305665
 20
106.2749868502302
 30
0.0
 11
130.6934890049247
 21
107.5342979007077
 31
0.0
 70
    32
 71
     5
 42
7.409989251283633
  3
STANDARD
100
AcDbAlignedDimension
 13
126.9884943792829
 23
122.9855848566862
 33
0.0
 14
134.3984836305665
 24
129.822206027999
 34
0.0
100
AcDbRotatedDimension
1001
ACAD
1000
DSTYLE
1002
{
1070
    47
1040
0.3
1070
    48
1040
0.3
1070
   271
1070
     1
1070
   272
1070
     1
1002
}
  0
DIMENSION
  5
8FEB
330
1F
100
AcDbEntity
  8
Dimension
370
     0
100
AcDbDimension
  2
*D15
 10
128.7884943792954
 20
116.9475976176496
 30
0.0
 11
122.1921096589555
 21
116.9475976176496
 31
0.0
 70
   160
 71
     5
 42
1.80000000001246
  3
STANDARD
100
AcDbAlignedDimension
 13
126.9884943792829
 23
122.9855848566862
 33
0.0
 14
128.7884943792954
 24
128.5605848563956
 34
0.0
100
AcDbRotatedDimension
1001
ACAD
1000
DSTYLE
1002
{
1070
    71
1070
     0
1070
   271
1070
     1
1002
}
  0
DIMENSION
  5
8FEC
330
1F
100
AcDbEntity
  8
Dimension
370
     0
100
AcDbDimension
  2
*D16
 10
126.9884943792829
 20
112.1645695215353
 30
0.0
 11
123.2122324420387
 21
113.4176390986158
 31
0.0
 70
    32
 71
     5
 42
0.9999999998186694
  3
STANDARD
100
AcDbAlignedDimension
 13
127.9884943791016
 23
127.6856337970625
 33
0.0
 14
126.9884943792829
 24
122.9855848566862
 34
0.0
100
AcDbRotatedDimension
1001
ACAD
1000
DSTYLE
1002
{
1070
   147
1040
0.5
1070
    72
1070
     0
1070
    71
1070
     0
1070
   271
1070
     0
1002
}
  0
DIMENSION
  5
8FED
330
1F
100
AcDbEntity
  8
Dimension
370
     0
100
AcDbDimension
  2
*D17
 10
140.3184011576455
 20
131.2355637939345
 30
0.0
 11
140.3184011576454
 21
145.0575159353132
 31
0.0
 70
   160
 71
     5
 42
1.499978937201547
  3
STANDARD
100
AcDbAlignedDimension
 13
134.248494379281
 23
129.735584856733
 33
0.0
 14
134.248482227921
 24
131.2355637939345
 34
0.0
 50
90.0
100
AcDbRotatedDimension
1001
ACAD
1000
DSTYLE
1002
{
1070
     3
1000
Ø <>
1070
    47
1040
-0.006
1070
    48
1040
0.009
1070
   271
1070
     1
1070
   272
1070
     3
1070
   284
1070
     8
1002
}
  0
DIMENSION
  5
8FEE
330
1F
100
AcDbEntity
  8
Dimension
370
     0
100
AcDbDimension
  2
*D18
 10
146.2674480062904
 20
133.4855848564768
 30
0.0
 11
146.2674480062904
 21
145.2193477336545
 31
0.0
 70
   160
 71
     5
 42
5.999999999759438
  3
STANDARD
100
AcDbAlignedDimension
 13
127.7884943794766
 23
127.4855848567174
 33
0.0
 14
127.7884943794766
 24
133.4855848564768
 34
0.0
 50
90.0
100
AcDbRotatedDimension
1001
ACAD
1000
DSTYLE
1002
{
1070
     3
1000
Ø <>
1070
    47
1040
0.0
1070
    48
1040
0.018
1070
   271
1070
     0
1070
   272
1070
     3
1070
   284
1070
     8
1002
}
  0
DIMENSION
  5
8FEF
330
1F
100
AcDbEntity
  8
Dimension
370
     0
100
AcDbDimension
  2
*D19
 10
96.33425058607627
 20
131.2355848564612
 30
0.0
 11
96.33425058607627
 21
143.6387555851213
 31
0.0
 70
   160
 71
     5
 42
1.499999999728231
  3
STANDARD
100
AcDbAlignedDimension
 13
100.8584943791341
 23
129.735584856733
 33
0.0
 14
100.8584943791341
 24
131.2355848564612
 34
0.0
 50
90.0
100
AcDbRotatedDimension
1001
ACAD
1000
DSTYLE
1002
{
1070
    47
1040
-0.006
1070
   272
1070
     3
1070
    48
1040
0.009
1070
     3
1000
Ø <>
1070
   147
1040
0.5
1070
    72
1070
     0
1070
    71
1070
     1
1070
   271
1070
     1
1002
}
  0
DIMENSION
  5
8FF0
330
1F
100
AcDbEntity
  8
Dimension
370
     0
100
AcDbDimension
  2
*D20
 10
91.43999659141767
 20
133.4855848564768
 30
0.0
 11
91.43999659141767
 21
144.9986597323324
 31
0.0
 70
   160
 71
     5
 42
5.999999999759438
  3
STANDARD
100
AcDbAlignedDimension
 13
107.2884943789579
 23
127.4855848567174
 33
0.0
 14
107.2884943789579
 24
133.4855848564768
 34
0.0
 50
90.0
100
AcDbRotatedDimension
1001
ACAD
1000
DSTYLE
1002
{
1070
   284
1070
     8
1070
   147
1040
0.5
1070
    72
1070
     0
1070
    71
1070
     1
1070
   272
1070
     3
1070
    47
1040
0.0
1070
    48
1040
0.018
1070
     3
1000
Ø <>
1070
   271
1070
     0
1002
}
  0
DIMENSION
  5
8FF1
330
1F
100
AcDbEntity
  8
Dimension
370
     0
100
AcDbDimension
  2
*D11
 10
153.0277700597513
 20
138.4855848564175
 30
0.0
 11
153.0277700597513
 21
143.9048067264751
 31
0.0
 70
   160
 71
     5
 42
15.99999999964069
  3
STANDARD
100
AcDbAlignedDimension
 13
126.4884943793734
 23
122.4855848567768
 33
0.0
 14
126.4884943793734
 24
138.4855848564175
 34
0.0
 50
90.0
100
AcDbRotatedDimension
1001
ACAD
1000
DSTYLE
1002
{
1070
     3
1000
Ø <>
1070
    71
1070
     0
1070
   271
1070
     0
1002
}
  0
DIMENSION
  5
91D2
330
1F
100
AcDbEntity
  8
Dimension
370
     0
100
AcDbDimension
  2
*D21
 10
108.0884943791516
 20
116.9475976176496
 30
0.0
 11
112.884879099479
 21
118.2134570992321
 31
0.0
 70
    32
 71
     5
 42
1.80000000001246
  3
STANDARD
100
AcDbAlignedDimension
 13
106.2884943791391
 23
128.5605848563956
 33
0.0
 14
108.0884943791516
 24
122.9855848566862
 34
0.0
100
AcDbRotatedDimension
1001
ACAD
1000
DSTYLE
1002
{
1070
    71
1070
     0
1070
   271
1070
     1
1002
}
  0
DIMENSION
  5
91E0
330
1F
100
AcDbEntity
  8
Dimension
370
     0
100
AcDbDimension
  2
*D22
 10
108.0884943791516
 20
112.1645695215353
 30
0.0
 11
111.8647563163958
 21
113.4176390986158
 31
0.0
 70
    32
 71
     5
 42
0.9999999998186694
  3
STANDARD
100
AcDbAlignedDimension
 13
107.0884943793329
 23
127.6856337970625
 33
0.0
 14
108.0884943791516
 24
122.9855848566862
 34
0.0
100
AcDbRotatedDimension
1001
ACAD
1000
DSTYLE
1002
{
1070
    71
1070
     0
1070
   271
1070
     0
1002
}
  0
DIMENSION
  5
92BE
330
1F
100
AcDbEntity
  8
Dimension
370
     0
100
AcDbDimension
  2
*D23
 10
160.4895916735737
 20
134.5052560573221
 30
0.0
 11
159.2268017690716
 21
130.5184477660635
 31
0.0
 70
    32
  1
7.5
 71
     5
 42
7.973616582517152
  3
STANDARD
100
AcDbAlignedDimension
 13
167.3459210923065
 23
126.5316394748049
 33
0.0
 14
167.3459210923065
 24
134.5052560573221
 34
0.0
 50
90.0
100
AcDbRotatedDimension
1001
ACAD
1000
DSTYLE
1002
{
1070
   271
1070
     1
1002
}
  0
DIMENSION
  5
92DE
330
1F
100
AcDbEntity
  8
Dimension
370
     0
100
AcDbDimension
  2
*D24
 10
188.3600109700904
 20
145.2177492461767
 30
0.0
 11
183.3600109701498
 21
146.525559614526
 31
0.0
 70
    32
 71
     5
 42
9.99999999988131
  3
STANDARD
100
AcDbAlignedDimension
 13
178.3600109702091
 23
131.553569914332
 33
0.0
 14
188.3600109700904
 24
131.553569914332
 34
0.0
100
AcDbRotatedDimension
1001
ACAD
1000
DSTYLE
1002
{
1070
   147
1040
0.5
1070
    72
1070
     0
1070
    71
1070
     0
1070
     3
1000
Ø <>
1070
   271
1070
     0
1002
}
  0
DIMENSION
  5
9307
330
1F
100
AcDbEntity
  8
Dimension
370
     0
100
AcDbDimension
  2
*D25
 10
189.4279960282487
 20
114.1884163418672
 30
0.0
 11
197.6868636953701
 21
115.4542758234497
 31
0.0
 70
    32
  1
M1.6 x 1.2
 71
     5
 42
2.135970116316514
  3
STANDARD
100
AcDbAlignedDimension
 13
187.2920259119321
 23
130.4855848561738
 33
0.0
 14
189.4279960282487
 24
130.4855848561738
 34
0.0
100
AcDbRotatedDimension
  0
LINE
  5
931F
330
1F
100
AcDbEntity
  8
Dimension
370
     0
100
AcDbLine
 10
167.4696057403721
 20
125.4697971507721
 30
0.0
 11
167.4696057403721
 21
113.9296578666624
 31
0.0
  0
LINE
  5
9320
330
1F
100
AcDbEntity
  8
Dimension
370
     0
100
AcDbLine
 10
176.5027145169132
 20
125.3652104367395
 30
0.0
 11
176.5027145169132
 21
113.9296578666624
 31
0.0
  0
LINE
  5
9321
330
1F
100
AcDbEntity
  8
Dimension
370
     0
100
AcDbLine
 10
168.9696057403721
 20
114.4296578666624
 30
0.0
 11
175.0027145169132
 21
114.4296578666624
 31
0.0
  0
SOLID
  5
9322
330
1F
100
AcDbEntity
  8
Dimension
370
     0
100
AcDbTrace
 10
168.9696057403721
 20
114.6796578666624
 30
0.0
 11
168.9696057403721
 21
114.1796578666624
 31
0.0
 12
167.4696057403721
 22
114.4296578666624
 32
0.0
 13
167.4696057403721
 23
114.4296578666624
 33
0.0
  0
SOLID
  5
9323
330
1F
100
AcDbEntity
  8
Dimension
370
     0
100
AcDbTrace
 10
175.0027145169132
 20
114.6796578666624
 30
0.0
 11
175.0027145169132
 21
114.1796578666624
 31
0.0
 12
176.5027145169132
 22
114.4296578666624
 32
0.0
 13
176.5027145169132
 23
114.4296578666624
 33
0.0
  0
MTEXT
  5
9324
330
1F
100
AcDbEntity
  8
Dimension
370
     0
100
AcDbMText
 10
171.9861601286426
 20
116.1901626415601
 30
0.0
 40
1.5
 41
0.0
 71
     5
 72
     1
  1
100{\H0.7x;\S+0^ -10;}
 73
     1
 44
1.0
1001
ACAD
1000
ACAD_MTEXT_DEFINED_HEIGHT_BEGIN
1070
    46
1040
0.0
1000
ACAD_MTEXT_DEFINED_HEIGHT_END
1000
MTEXTBEGIN
1070
    73
1070
     1
1070
    44
1040
1.0
1070
    74
1070
     0
1000
MTEXTEND
  0
SPLINE
  5
9325
330
1F
100
AcDbEntity
  8
Dimension
370
     0
100
AcDbSpline
210
0.0
220
0.0
230
1.0
 70
     8
 71
     3
 72
    10
 73
     6
 74
     4
 42
0.0000000001
 43
0.0000000001
 44
0.0000000001
 12
0.7236538124877933
 22
-0.6901631398965624
 32
0.0
 40
0.0
 40
0.0
 40
0.0
 40
0.0
 40
0.5132054564431194
 40
0.9507584938353874
 40
1.379911232050183
 40
1.379911232050183
 40
1.379911232050183
 40
1.379911232050183
 10
172.3063886793983
 20
135.0491878654161
 30
0.0
 10
172.4301830411131
 20
134.9311227023392
 30
0.0
 10
172.5897674427473
 20
134.5215367009803
 30
0.0
 10
172.0047858691434
 20
134.2475699809874
 30
0.0
 10
172.2388606894369
 20
133.9755464766648
 30
0.0
 10
172.3547637477795
 20
133.8408529797199
 30
0.0
 11
172.3063886793983
 21
135.0491878654161
 31
0.0
 11
172.4385312852655
 21
134.5532864919177
 31
0.0
 11
172.1545274814909
 21
134.2204284140936
 31
0.0
 11
172.3547637477795
 21
133.8408529797199
 31
0.0
  0
SPLINE
  5
9326
330
1F
100
AcDbEntity
  8
Dimension
370
     0
100
AcDbSpline
210
0.0
220
0.0
230
1.0
 70
     8
 71
     3
 72
    10
 73
     6
 74
     4
 42
0.0000000001
 43
0.0000000001
 44
0.0000000001
 12
0.7236538124877933
 22
-0.6901631398965624
 32
0.0
 40
0.0
 40
0.0
 40
0.0
 40
0.0
 40
0.5132054564431194
 40
0.9507584938353874
 40
1.379911232050183
 40
1.379911232050183
 40
1.379911232050183
 40
1.379911232050183
 10
172.796967549135
 20
135.0491878654161
 30
0.0
 10
172.9207619108499
 20
134.9311227023392
 30
0.0
 10
173.080346312484
 20
134.5215367009803
 30
0.0
 10
172.4953647388801
 20
134.2475699809874
 30
0.0
 10
172.7294395591736
 20
133.9755464766648
 30
0.0
 10
172.8453426175162
 20
133.8408529797199
 30
0.0
 11
172.796967549135
 21
135.0491878654161
 31
0.0
 11
172.9291101550022
 21
134.5532864919177
 31
0.0
 11
172.6451063512276
 21
134.2204284140936
 31
0.0
 11
172.8453426175162
 21
133.8408529797199
 31
0.0
  0
SPLINE
  5
9327
330
1F
100
AcDbEntity
  8
Dimension
370
     0
100
AcDbSpline
210
0.0
220
0.0
230
1.0
 70
     8
 71
     3
 72
    10
 73
     6
 74
     4
 42
0.0000000001
 43
0.0000000001
 44
0.0000000001
 12
0.7236538124877933
 22
-0.6901631398965624
 32
0.0
 40
0.0
 40
0.0
 40
0.0
 40
0.0
 40
0.5132054564431194
 40
0.9507584938353874
 40
1.379911232050183
 40
1.379911232050183
 40
1.379911232050183
 40
1.379911232050183
 10
172.3063886793983
 20
127.0916809694099
 30
0.0
 10
172.4301830411131
 20
126.9736158063329
 30
0.0
 10
172.5897674427473
 20
126.564029804974
 30
0.0
 10
172.0047858691434
 20
126.2900630849811
 30
0.0
 10
172.2388606894369
 20
126.0180395806585
 30
0.0
 10
172.3547637477795
 20
125.8833460837136
 30
0.0
 11
172.3063886793983
 21
127.0916809694099
 31
0.0
 11
172.4385312852655
 21
126.5957795959115
 31
0.0
 11
172.1545274814909
 21
126.2629215180874
 31
0.0
 11
172.3547637477795
 21
125.8833460837136
 31
0.0
  0
SPLINE
  5
9328
330
1F
100
AcDbEntity
  8
Dimension
370
     0
100
AcDbSpline
210
0.0
220
0.0
230
1.0
 70
     8
 71
     3
 72
    10
 73
     6
 74
     4
 42
0.0000000001
 43
0.0000000001
 44
0.0000000001
 12
0.7236538124877933
 22
-0.6901631398965624
 32
0.0
 40
0.0
 40
0.0
 40
0.0
 40
0.0
 40
0.5132054564431194
 40
0.9507584938353874
 40
1.379911232050183
 40
1.379911232050183
 40
1.379911232050183
 40
1.379911232050183
 10
172.796967549135
 20
127.0916809694099
 30
0.0
 10
172.9207619108499
 20
126.9736158063329
 30
0.0
 10
173.080346312484
 20
126.564029804974
 30
0.0
 10
172.4953647388801
 20
126.2900630849811
 30
0.0
 10
172.7294395591736
 20
126.0180395806585
 30
0.0
 10
172.8453426175162
 20
125.8833460837136
 30
0.0
 11
172.796967549135
 21
127.0916809694099
 31
0.0
 11
172.9291101550022
 21
126.5957795959115
 31
0.0
 11
172.6451063512276
 21
126.2629215180874
 31
0.0
 11
172.8453426175162
 21
125.8833460837136
 31
0.0
  0
LINE
  5
9329
330
1F
100
AcDbEntity
  8
0
  6
Continuous
 62
     7
100
AcDbLine
 10
172.4667225567642
 20
126.6980685137169
 30
0.0
 11
169.3004990018467
 21
126.6980685137169
 31
0.0
  0
LINE
  5
932A
330
1F
100
AcDbEntity
  8
0
  6
Continuous
 62
     7
100
AcDbLine
 10
172.2234909285979
 20
126.3652104367395
 30
0.0
 11
169.3004990018467
 21
126.3652104367395
 31
0.0
  0
LINE
  5
932B
330
1F
100
AcDbEntity
  8
0
  6
Continuous
 62
     7
100
AcDbLine
 10
172.4591022184835
 20
134.6098427722013
 30
0.0
 11
169.3004990018467
 21
134.6098427722013
 31
0.0
  0
LINE
  5
932C
330
1F
100
AcDbEntity
  8
0
  6
Continuous
 62
     7
100
AcDbLine
 10
172.1837051805948
 20
134.2769846943772
 30
0.0
 11
169.3004990018467
 21
134.2769846943772
 31
0.0
  0
MTEXT
  5
9354
330
1F
100
AcDbEntity
  8
Dimension
370
     0
100
AcDbMText
 10
35.36935010903733
 20
97.28526950698537
 30
0.0
 40
2.5
 41
29.06895138890167
 71
     1
 72
     5
  1
{\fArial|b1|i0|c0|p34;P110 064  . . . 08}
 73
     1
 44
1.0
1001
ACAD
1000
ACAD_MTEXT_DEFINED_HEIGHT_BEGIN
1070
    46
1040
0.0
1000
ACAD_MTEXT_DEFINED_HEIGHT_END
1000
MTEXTBEGIN
1070
    73
1070
     1
1070
    44
1040
1.0
1070
    74
1070
     0
1000
MTEXTEND
  0
MTEXT
  5
9355
330
1F
100
AcDbEntity
  8
Dimension
370
     0
100
AcDbMText
 10
105.9591487158946
 20
97.28526950698537
 30
0.0
 40
2.5
 41
28.4370171718432
 71
     1
 72
     5
  1
{\fArial|b1|i0|c0|p34;P110 064  . . . 12}
 73
     1
 44
1.0
1001
ACAD
1000
ACAD_MTEXT_DEFINED_HEIGHT_BEGIN
1070
    46
1040
0.0
1000
ACAD_MTEXT_DEFINED_HEIGHT_END
1000
MTEXTBEGIN
1070
    73
1070
     1
1070
    44
1040
1.0
1070
    74
1070
     0
1000
MTEXTEND
  0
MTEXT
  5
935F
330
1F
100
AcDbEntity
  8
Dimension
370
     0
100
AcDbMText
 10
35.36935010903733
 20
93.28807967390066
 30
0.0
 40
2.5
 41
29.06895138890167
 71
     1
 72
     5
  1
{\fArial|b1|i0|c0|p34;P110 104  . . . 08}
 73
     1
 44
1.0
1001
ACAD
1000
ACAD_MTEXT_DEFINED_HEIGHT_BEGIN
1070
    46
1040
0.0
1000
ACAD_MTEXT_DEFINED_HEIGHT_END
1000
MTEXTBEGIN
1070
    73
1070
     1
1070
    44
1040
1.0
1070
    74
1070
     0
1000
MTEXTEND
  0
MTEXT
  5
9360
330
1F
100
AcDbEntity
  8
Dimension
370
     0
100
AcDbMText
 10
105.9591487158946
 20
93.28807967390066
 30
0.0
 40
2.5
 41
28.4370171718432
 71
     1
 72
     5
  1
{\fArial|b1|i0|c0|p34;P110 104  . . . 12}
 73
     1
 44
1.0
1001
ACAD
1000
ACAD_MTEXT_DEFINED_HEIGHT_BEGIN
1070
    46
1040
0.0
1000
ACAD_MTEXT_DEFINED_HEIGHT_END
1000
MTEXTBEGIN
1070
    73
1070
     1
1070
    44
1040
1.0
1070
    74
1070
     0
1000
MTEXTEND
  0
ENDSEC
  0
SECTION
  2
OBJECTS
  0
DICTIONARY
  5
C
330
0
100
AcDbDictionary
281
     1
  3
ACAD_COLOR
350
9AB
  3
ACAD_GROUP
350
D
  3
ACAD_LAYOUT
350
1A
  3
ACAD_MATERIAL
350
9AA
  3
ACAD_MLINESTYLE
350
17
  3
ACAD_PLOTSETTINGS
350
19
  3
ACAD_PLOTSTYLENAME
350
E
  3
ACAD_TABLESTYLE
350
1079
  3
ACDBHEADERROUNDTRIPXREC
350
9365
  3
AcDbVariableDictionary
350
1081
  3
ASE_INDEX_DICTIONARY
350
9B0
  0
DICTIONARY
  5
46EE
330
2
100
AcDbDictionary
280
     1
281
     1
  3
ACAD_LAYERFILTERS
360
46F4
  3
ACLYDICTIONARY
360
46F3
  0
DICTIONARY
  5
467E
330
1F
100
AcDbDictionary
280
     1
281
     1
  3
ACAD_SORTENTS
360
467F
  0
DICTIONARY
  5
9AB
102
{ACAD_REACTORS
330
C
102
}
330
C
100
AcDbDictionary
281
     1
  0
DICTIONARY
  5
D
102
{ACAD_REACTORS
330
C
102
}
330
C
100
AcDbDictionary
281
     1
  0
DICTIONARY
  5
1A
102
{ACAD_REACTORS
330
C
102
}
330
C
100
AcDbDictionary
281
     1
  3
Layout1
350
1E
  3
Model
350
22
  0
DICTIONARY
  5
9AA
102
{ACAD_REACTORS
330
C
102
}
330
C
100
AcDbDictionary
281
     1
  0
DICTIONARY
  5
17
102
{ACAD_REACTORS
330
C
102
}
330
C
100
AcDbDictionary
281
     1
  3
Standard
350
18
  0
DICTIONARY
  5
19
102
{ACAD_REACTORS
330
C
102
}
330
C
100
AcDbDictionary
281
     1
  0
ACDBDICTIONARYWDFLT
  5
E
102
{ACAD_REACTORS
330
C
102
}
330
C
100
AcDbDictionary
281
     1
  3
Normal
350
F
100
AcDbDictionaryWithDefault
340
F
  0
DICTIONARY
  5
1079
102
{ACAD_REACTORS
330
C
102
}
330
C
100
AcDbDictionary
281
     1
  3
Standard
350
107A
  0
DICTIONARY
  5
9365
102
{ACAD_REACTORS
330
C
102
}
330
C
100
AcDbDictionary
281
     1
  0
DICTIONARY
  5
1081
102
{ACAD_REACTORS
330
C
102
}
330
C
100
AcDbDictionary
281
     1
  3
CTABLESTYLE
350
1082
  3
DIMASSOC
350
9362
  3
PROJECTNAME
350
9363
  0
DICTIONARY
  5
9B0
102
{ACAD_REACTORS
330
C
102
}
330
C
100
AcDbDictionary
281
     1
  3
ASEBlockHierarchyIndexRecord
350
9B2
1001
DCO15
1040
1631521447.25
  0
DICTIONARY
  5
46F4
102
{ACAD_REACTORS
330
46EE
102
}
330
46EE
100
AcDbDictionary
281
     1
  0
DICTIONARY
  5
46F3
102
{ACAD_REACTORS
330
46EE
102
}
330
46EE
100
AcDbDictionary
281
     1
1001
ACAD
1000
<All
  0
SORTENTSTABLE
  5
467F
102
{ACAD_REACTORS
330
467E
102
}
330
467E
100
AcDbSortentsTable
330
1F
331
9307
  5
9328
331
8FED
  5
8FF1
331
8B6B
  5
8C0F
331
8AB6
  5
8ABA
331
8B2C
  5
8B32
331
8C42
  5
8C48
331
931F
  5
9320
331
8B34
  5
8B3A
331
8AF5
  5
8AFA
331
8C4A
  5
8C5C
331
8C5A
  5
8C60
331
8B3C
  5
8B42
331
8AFD
  5
8B03
331
8AC6
  5
8ACA
331
8C13
  5
8C19
331
8C1B
  5
8C27
331
8B05
  5
8B0C
331
8ACE
  5
8AD4
331
8B44
  5
8B4A
331
8C62
  5
8C6A
331
9327
  5
932B
331
8C6A
  5
8B07
331
8C23
  5
8C29
331
8B4C
  5
8B52
331
8B0D
  5
8B13
331
8B54
  5
8B66
331
8ADE
  5
8AE4
331
8B15
  5
8B1B
331
8D19
  5
8DFA
331
8B64
  5
8B6A
331
8AE6
  5
8AF1
331
8B1D
  5
8B23
331
8C33
  5
8C3E
331
8AA7
  5
8AB2
331
8B25
  5
8B2B
331
8DD0
  5
8EBA
331
91D2
  5
9307
331
8FEE
  5
91D2
331
8C43
  5
8C49
331
8B2D
  5
8B33
331
8AB7
  5
8AC4
331
8B6C
  5
8C10
331
8C4B
  5
8C5D
331
8C0C
  5
8C12
331
8AF6
  5
8AFB
331
8B35
  5
8B3B
331
8C14
  5
8C1A
331
8AFE
  5
8B04
331
8AC7
  5
8ACB
331
8B3D
  5
8B43
331
8C5B
  5
8C61
331
8C1C
  5
8C28
331
8ACF
  5
8AD5
331
8B45
  5
8B4B
331
8C63
  5
8C6B
331
9320
  5
9321
331
9328
  5
932C
331
8C6B
  5
8C96
331
8B4D
  5
8B53
331
8B0E
  5
8B14
331
8C24
  5
8C2A
331
8C2C
  5
8C34
331
8B16
  5
8B1C
331
8ADF
  5
8AE5
331
8B55
  5
8B67
331
8B65
  5
8B6B
331
8AE7
  5
8AF2
331
8B1E
  5
8B24
331
8C3C
  5
8C42
331
8B26
  5
8B2C
331
8FEF
  5
91E0
331
8B6D
  5
8C11
331
8AB8
  5
8AC5
331
8B2E
  5
8B34
331
8C44
  5
8C4A
331
8C4C
  5
8C5E
331
8B36
  5
8B3C
331
8AF7
  5
8AFC
331
8C0D
  5
8C13
331
8C5C
  5
8C62
331
8B3E
  5
8B44
331
8AC8
  5
8ACC
331
8AFF
  5
8B05
331
8C15
  5
8C1B
331
8B07
  5
8B0D
331
8B46
  5
8B4C
331
8C64
  5
8C6C
331
9321
  5
9322
331
9329
  5
8AB3
331
8AD0
  5
8ADC
331
8C6C
  5
8CDF
331
8C25
  5
8C2C
331
8B4E
  5
8B54
331
8B0F
  5
8B15
331
8D0B
  5
8DEC
331
8C2D
  5
8C35
331
8AE0
  5
8AE6
331
8B17
  5
8B1D
331
8B66
  5
8B6C
331
8B1F
  5
8B25
331
8B27
  5
8B2D
331
8C3D
  5
8C43
331
8FE8
  5
8FEC
331
8FF0
  5
92BE
331
8C45
  5
8C4B
331
8DFA
  5
8FEA
331
8AF0
  5
8AF6
331
8B2F
  5
8B35
331
8C0E
  5
8C14
331
8AF8
  5
8AFD
331
8B37
  5
8B3D
331
8C16
  5
8C1D
331
8AC9
  5
8ACE
331
8B00
  5
8B06
331
8B3F
  5
8B45
331
8C5D
  5
8C63
331
8B47
  5
8B4D
331
9322
  5
9323
331
932A
  5
8AA4
331
8EBA
  5
8FEB
331
8B08
  5
8B0E
331
8AD1
  5
8ADD
331
8C6D
  5
8D0B
331
8B4F
  5
8B55
331
8B10
  5
8B16
331
8C26
  5
8C2D
331
8AE1
  5
8AE7
331
8B18
  5
8B1E
331
8C2E
  5
8C3A
331
8B67
  5
8B6D
331
8B20
  5
8B26
331
8C3E
  5
8C44
331
8FE9
  5
8FED
331
8FF1
  5
92DE
331
8AB2
  5
8AB4
331
8B28
  5
8B2E
331
8AF1
  5
8AF7
331
8ABA
  5
8AC6
331
8B30
  5
8B36
331
8C46
  5
8C4C
331
8B38
  5
8B3E
331
8AF9
  5
8AFE
331
8C0F
  5
8C15
331
8C5E
  5
8C64
331
8ACA
  5
8ACF
331
8B40
  5
8B46
331
8C17
  5
8C1E
331
9323
  5
9324
331
932B
  5
8ABB
331
8B09
  5
8B0F
331
8B48
  5
8B4E
331
8C6E
  5
8D19
331
8C27
  5
8C2E
331
8B50
  5
8B56
331
8B11
  5
8B17
331
8AE2
  5
8AE8
331
8B19
  5
8B1F
331
8C2F
  5
8C3B
331
8C96
  5
8DD0
331
8AA3
  5
8AA3
331
8B21
  5
8B27
331
8C3F
  5
8C45
331
8FEA
  5
8FEE
331
8B29
  5
8B2F
331
8AEA
  5
8AF3
331
8DEC
  5
8FE9
331
8AB3
  5
8AB6
331
8B68
  5
8C0C
331
8C47
  5
8C4D
331
8AF2
  5
8AF8
331
8ABB
  5
8AC7
331
8B31
  5
8B37
331
8C10
  5
8C16
331
8AFA
  5
8AFF
331
8B39
  5
8B3F
331
8C18
  5
8C25
331
8B41
  5
8B47
331
8ACB
  5
8AD0
331
8B02
  5
8B09
331
8C5F
  5
8C66
331
9324
  5
9325
331
932C
  5
8AB5
331
8B49
  5
8B4F
331
8B0A
  5
8B10
331
8AD3
  5
8ADE
331
8C28
  5
8C2F
331
8B12
  5
8B18
331
8ADB
  5
8AE0
331
8B51
  5
8B57
331
8B1A
  5
8B20
331
8C38
  5
8C3F
331
8AA4
  5
8AA5
331
8B22
  5
8B28
331
8FEB
  5
8FEF
331
8B69
  5
8C0D
331
8AEB
  5
8AF5
331
8AB4
  5
8AB7
331
8B2A
  5
8B30
331
8C40
  5
8C46
331
8B32
  5
8B38
331
8C48
  5
8C4E
331
8CDF
  5
8DDE
331
8B3A
  5
8B40
331
8AFB
  5
8B00
331
92BE
  5
9326
331
8AC4
  5
8AC8
331
8C11
  5
8C17
331
8C60
  5
8C67
331
8C19
  5
8C26
331
8B03
  5
8B0A
331
8ACC
  5
8AD1
331
8B42
  5
8B48
331
9325
  5
9329
331
8C68
  5
8C6E
331
8B0B
  5
8B11
331
92DE
  5
9327
331
8AD4
  5
8ADF
331
8B4A
  5
8B50
331
8C29
  5
8C30
331
8B52
  5
8B64
331
8ADC
  5
8AE1
331
8B13
  5
8B19
331
8B62
  5
8B68
331
8AE4
  5
8AEB
331
8B1B
  5
8B21
331
8AA5
  5
8AA6
331
8B23
  5
8B29
331
8C39
  5
8C40
331
8FEC
  5
8FF0
331
8DDE
  5
8FE8
331
8C41
  5
8C47
331
8B2B
  5
8B31
331
91E0
  5
931F
331
8AB5
  5
8AB8
331
8B6A
  5
8C0E
331
8C49
  5
8C5B
331
8AF4
  5
8AF9
331
8B33
  5
8B39
331
8C12
  5
8C18
331
8AFC
  5
8B02
331
8AC5
  5
8AC9
331
8B3B
  5
8B41
331
8C59
  5
8C5F
331
8B43
  5
8B49
331
8ACD
  5
8AD2
331
8B04
  5
8B0B
331
8C61
  5
8C69
331
9326
  5
932A
331
8B4B
  5
8B51
331
8B0C
  5
8B12
331
8C69
  5
8C6D
331
8C2A
  5
8C31
331
8B14
  5
8B1A
331
8ADD
  5
8AE2
331
8B53
  5
8B65
331
8B63
  5
8B69
331
8AE5
  5
8AEC
331
8B1C
  5
8B22
331
8C32
  5
8C3C
331
8C3A
  5
8C41
331
8AA6
  5
8AA7
331
8B24
  5
8B2A
  0
LAYOUT
  5
1E
102
{ACAD_XDICTIONARY
360
9366
102
}
102
{ACAD_REACTORS
330
1A
102
}
330
1A
100
AcDbPlotSettings
  1

  2

  4

  6

 40
0.0
 41
0.0
 42
0.0
 43
0.0
 44
0.0
 45
0.0
 46
0.0
 47
0.0
 48
0.0
 49
0.0
140
0.0
141
0.0
142
1.0
143
1.0
 70
     0
 72
     0
 73
     0
 74
     0
  7

 75
     0
147
1.0
148
0.0
149
0.0
100
AcDbLayout
  1
Layout1
 70
     0
 71
     1
 10
0.0
 20
0.0
 11
12.0
 21
9.0
 12
0.0
 22
0.0
 32
0.0
 14
1.000000000000000E+20
 24
1.000000000000000E+20
 34
1.000000000000000E+20
 15
-1.000000000000000E+20
 25
-1.000000000000000E+20
 35
-1.000000000000000E+20
146
0.0
 13
0.0
 23
0.0
 33
0.0
 16
1.0
 26
0.0
 36
0.0
 17
0.0
 27
1.0
 37
0.0
 76
     0
330
1B
  0
LAYOUT
  5
22
102
{ACAD_XDICTIONARY
360
9368
102
}
102
{ACAD_REACTORS
330
1A
102
}
330
1A
100
AcDbPlotSettings
  1

  2
FX Document Centre 405 PCL 6
  4
A4
  6

 40
5.111750125885009
 41
5.11176061630249
 42
5.111740112304687
 43
5.11175537109375
 44
209.9733276367187
 45
296.9259948730469
 46
0.0
 47
0.0
 48
0.0
 49
0.0
140
0.0
141
0.0
142
1.0
143
1.0
 70
 14336
 72
     0
 73
     1
 74
     0
  7

 75
     0
147
1.0
148
-64.72422321218214
149
-2.159235741175924
100
AcDbLayout
  1
Model
 70
     0
 71
     0
 10
0.0
 20
0.0
 11
0.0
 21
0.0
 12
0.0
 22
0.0
 32
0.0
 14
0.0
 24
0.0
 34
0.0
 15
0.0
 25
0.0
 35
0.0
146
0.0
 13
0.0
 23
0.0
 33
0.0
 16
0.0
 26
0.0
 36
0.0
 17
0.0
 27
0.0
 37
0.0
 76
     0
330
1F
  0
MLINESTYLE
  5
18
102
{ACAD_REACTORS
330
17
102
}
330
17
100
AcDbMlineStyle
  2
STANDARD
 70
     0
  3

 62
   256
 51
90.0
 52
90.0
 71
     2
 49
0.5
 62
   256
  6
BYLAYER
 49
-0.5
 62
   256
  6
BYLAYER
  0
ACDBPLACEHOLDER
  5
F
102
{ACAD_REACTORS
330
E
102
}
330
0
  0
TABLESTYLE
  5
107A
102
{ACAD_REACTORS
330
1079
102
}
330
1079
100
AcDbTableStyle
  3
Standard
 70
     0
 71
     0
 40
0.06
 41
0.06
280
     0
281
     0
  7
STANDARD
140
0.18
170
     2
 62
     0
 63
     7
283
     0
274
    -2
284
     1
 64
     0
275
    -2
285
     1
 65
     0
276
    -2
286
     1
 66
     0
277
    -2
287
     1
 67
     0
278
    -2
288
     1
 68
     0
279
    -2
289
     1
 69
     0
  7
STANDARD
140
0.25
170
     5
 62
     0
 63
     7
283
     0
274
    -2
284
     1
 64
     0
275
    -2
285
     1
 65
     0
276
    -2
286
     1
 66
     0
277
    -2
287
     1
 67
     0
278
    -2
288
     1
 68
     0
279
    -2
289
     1
 69
     0
  7
STANDARD
140
0.18
170
     5
 62
     0
 63
     7
283
     0
274
    -2
284
     1
 64
     0
275
    -2
285
     1
 65
     0
276
    -2
286
     1
 66
     0
277
    -2
287
     1
 67
     0
278
    -2
288
     1
 68
     0
279
    -2
289
     1
 69
     0
  0
DICTIONARYVAR
  5
1082
102
{ACAD_REACTORS
330
1081
102
}
330
1081
100
DictionaryVariables
280
     0
  1
STANDARD
  0
DICTIONARYVAR
  5
9362
102
{ACAD_REACTORS
330
1081
102
}
330
1081
100
DictionaryVariables
280
     0
  1
1
  0
DICTIONARYVAR
  5
9363
102
{ACAD_REACTORS
330
1081
102
}
330
1081
100
DictionaryVariables
280
     0
  1

  0
XRECORD
  5
9B2
102
{ACAD_REACTORS
330
9B0
102
}
330
9B0
100
AcDbXrecord
280
     1
330
0
330
0
330
0
330
0
330
0
330
0
330
0
330
0
330
0
330
0
330
0
330
0
330
0
  0
DICTIONARY
  5
9366
330
1E
100
AcDbDictionary
280
     1
281
     1
  3
ACAD_XREC_ROUNDTRIP
360
9367
  0
DICTIONARY
  5
9368
330
22
100
AcDbDictionary
280
     1
281
     1
  3
ACAD_XREC_ROUNDTRIP
360
9369
  0
XRECORD
  5
9367
102
{ACAD_REACTORS
330
9366
102
}
330
9366
100
AcDbXrecord
280
     1
102
SHADEPLOT
 70
     0
102
SHADEPLOTRESLEVEL
 70
     2
102
SHADEPLOTCUSTOMDPI
 70
   300
  0
XRECORD
  5
9369
102
{ACAD_REACTORS
330
9368
102
}
330
9368
100
AcDbXrecord
280
     1
102
SHADEPLOT
 70
     0
102
SHADEPLOTRESLEVEL
 70
     2
102
SHADEPLOTCUSTOMDPI
 70
   300
  0
ENDSEC
  0
EOF
